<?xml version="1.0" standalone="no"?>
<!DOCTYPE svg PUBLIC "-//W3C//DTD SVG 1.1//EN" "http://www.w3.org/Graphics/SVG/1.1/DTD/svg11.dtd" >
<svg xmlns="http://www.w3.org/2000/svg">
  <metadata>Created by iconfont</metadata>
  <defs>
  <font id="sdocfont" horiz-adv-x="1024">
    <font-face
      font-family="sdocfont"
      font-weight="400"
      font-stretch="normal"
      units-per-em="1024"
      ascent="896"
      descent="-128"
    />
      <missing-glyph />
      
      <glyph glyph-name="sdoc-ask-ai" unicode="&#59015;" d="M678.4 896l92.8-252.8 252.8-92.8-252.8-92.8-92.8-252.8-92.8 252.8-252.8 92.8c166.4 60.8 252.8 92.8 252.8 92.8L678.4 896zM185.6 198.4L256 384l70.4-185.6L512 128l-185.6-70.4L256-128l-70.4 185.6L0 128z"  horiz-adv-x="1024" />
      
      <glyph glyph-name="sdoc-document-link" unicode="&#59014;" d="M800 896l160-166.4V-32h-192v64h128V672h-160V832H256v-800 128H192V896zM736 608v-160H416V608h320z m-64-64h-192v-32h192v32zM416 416h224v-64h-224zM416 320h320v-64H416zM752 192c9.6 0 16-6.4 16-16v-288c0-9.6-6.4-16-16-16h-672c-9.6 0-16 6.4-16 16v288c0 9.6 6.4 16 16 16h672zM163.2 134.4c-64-9.6-57.6-70.4-51.2-83.2 19.2-32 51.2-32 70.4-35.2s28.8-12.8 28.8-22.4c0-9.6-6.4-19.2-19.2-22.4-25.6-6.4-35.2 9.6-44.8 28.8 0 0-16-3.2-38.4-9.6 12.8-41.6 41.6-60.8 83.2-54.4 64 9.6 60.8 67.2 41.6 89.6-9.6 9.6-22.4 19.2-41.6 22.4s-32 3.2-38.4 9.6c-9.6 6.4-12.8 35.2 16 38.4 19.2 3.2 35.2-6.4 38.4-22.4l38.4 6.4c-12.8 41.6-41.6 60.8-83.2 54.4z m492.8-6.4c-54.4 0-70.4-54.4-70.4-99.2s22.4-99.2 70.4-99.2c32 0 54.4 22.4 67.2 64l-35.2 16c-6.4-25.6-16-38.4-28.8-38.4-19.2 0-32 25.6-32 60.8s16 51.2 32 51.2c9.6 0 19.2-9.6 25.6-25.6l35.2 9.6c-3.2 41.6-25.6 60.8-64 60.8z m-316.8 0h-64v-192h64c32 0 67.2 41.6 67.2 96s-28.8 96-67.2 96z m156.8 0c-48 0-64-41.6-64-96s19.2-96 64-96 64 41.6 64 96-16 96-64 96z m-166.4-35.2c9.6 0 35.2-6.4 35.2-57.6s-25.6-60.8-35.2-60.8h-16v118.4h16z m166.4 0c19.2 0 25.6-25.6 25.6-57.6s-6.4-57.6-25.6-57.6-25.6 25.6-25.6 54.4c0 32 6.4 60.8 25.6 60.8z"  horiz-adv-x="1024" />
      
      <glyph glyph-name="sdoc-send-arrow" unicode="&#59006;" d="M1024 384c0-281.6-230.4-512-512-512S0 102.4 0 384 230.4 896 512 896s512-230.4 512-512zM476.8 652.8l-233.6-233.6c-19.2-19.2-19.2-54.4 0-73.6s54.4-19.2 73.6 0l144 144v-336c0-28.8 22.4-54.4 54.4-54.4s54.4 22.4 54.4 54.4V489.6l144-144c19.2-19.2 54.4-19.2 73.6 0s19.2 54.4 0 73.6l-233.6 233.6c-22.4 22.4-57.6 22.4-76.8 0z"  horiz-adv-x="1024" />
      
      <glyph glyph-name="sdoc-try-again" unicode="&#59007;" d="M320 416L0 624 320 832v-160h352c195.2 0 352-156.8 352-352s-156.8-352-352-352H128v96h544c140.8 0 256 115.2 256 256s-115.2 256-256 256H320v-160z"  horiz-adv-x="1024" />
      
      <glyph glyph-name="sdoc-ai-translate" unicode="&#59008;" d="M934.4-99.2l-64 131.2H576l-64-131.2c-12.8-22.4-41.6-35.2-67.2-22.4s-35.2 44.8-25.6 67.2l80 147.2 156.8 316.8c12.8 25.6 38.4 41.6 64 41.6s51.2-12.8 64-41.6l156.8-316.8 76.8-153.6c9.6-22.4 0-51.2-19.2-60.8-9.6-6.4-16-6.4-25.6-6.4-16 0-32 9.6-38.4 28.8zM624 128h192l-99.2 192-92.8-192z m-576-105.6c-19.2 0-32 9.6-41.6 28.8-9.6 22.4 0 51.2 22.4 60.8C131.2 160 224 230.4 297.6 313.6c-51.2 70.4-92.8 140.8-121.6 208-9.6 25.6 6.4 54.4 28.8 64 22.4 6.4 51.2-6.4 60.8-28.8 22.4-54.4 51.2-112 89.6-163.2 64 92.8 112 198.4 140.8 310.4h-448C19.2 704 0 723.2 0 752S19.2 800 48 800h256V848C304 876.8 323.2 896 352 896s48-19.2 48-48V800h256c28.8 0 48-19.2 48-48S684.8 704 656 704h-67.2c-28.8-140.8-92.8-272-176-384l70.4-57.6c16-12.8 19.2-48 0-64-19.2-19.2-44.8-16-64 0l-60.8 48c-80-89.6-176-163.2-288-217.6-9.6-3.2-19.2-6.4-22.4-6.4z"  horiz-adv-x="1024" />
      
      <glyph glyph-name="sdoc-insert-below" unicode="&#59009;" d="M1024 864H0v-96h1024V864zM0 576v-288c0-172.8 134.4-297.6 307.2-304h12.8v-67.2c0-19.2 12.8-32 32-32 9.6 0 16 3.2 22.4 9.6L512 32l-137.6 137.6c-12.8 12.8-32 12.8-44.8 0-6.4-6.4-9.6-12.8-9.6-22.4v-67.2c-102.4 0-217.6 96-224 195.2V576H0z m608-480v-96h416v96H608zM256 480v-96h768v96H256z"  horiz-adv-x="1024" />
      
      <glyph glyph-name="sdoc-continue-writing" unicode="&#59010;" d="M572.792306 886.271631c-12.79838 9.598785-28.796355 12.79838-44.794331 6.39919s-25.59676-12.79838-31.99595-28.796355L352.020247 521.517795c-6.39919-12.79838-12.79838-22.397165-22.397165-31.99595l-111.985827-83.189471C179.242115 374.336423 160.044544 319.943307 160.044544 275.148976c0-31.995951 6.39919-99.187447 19.197571-204.774083l-47.993926-111.985827c-15.997975-3.199595-28.796355-12.79838-31.995951-28.796355-6.39919-15.997975-3.199595-31.995951 9.598786-44.794331 6.39919-6.39919 15.997975-12.79838 28.796355-12.79838H767.967604v95.987852H256.032396l25.59676 41.594735 191.975703 60.792306c44.794331 15.997975 76.790281 47.993926 92.788257 92.788257l44.794331 131.183397c3.199595 12.79838 12.79838 22.397165 22.397165 31.99595l271.965579 255.967604c12.79838 9.598785 15.997975 25.59676 15.997976 41.594736s-9.598785 28.796355-22.397166 38.395141L572.792306 886.271631z m-79.989876-678.314151c-6.39919-19.19757-22.397165-38.395141-44.794331-44.79433l-134.382992-44.794331 134.382992 191.975703c12.79838 3.199595 22.397165 9.598785 28.796355 22.397165 3.199595 12.79838 3.199595 28.796355-6.39919 38.395141-6.39919 9.598785-19.19757 12.79838-28.796355 12.79838-9.598785 0-22.397165-6.39919-28.796356-15.997975-6.39919-6.39919-6.39919-19.19757-6.39919-25.59676l-134.382992-191.975704-6.39919 140.782183c0 22.397165 9.598785 41.594736 25.59676 57.592711l86.389067 73.590686c15.997975 12.79838 25.59676 28.796355 35.195545 44.794331l6.399191 12.79838 153.580562-108.786232-6.39919-6.39919c-12.79838-12.79838-25.59676-28.796355-31.995951-47.993926l-41.594735-108.786232z m131.183397 233.570439l-163.179348 118.385017 99.187447 214.372868L799.963555 607.906862l-175.977728-166.378943z"  horiz-adv-x="1024" />
      
      <glyph glyph-name="sdoc-replace" unicode="&#59011;" d="M278.4 505.6V608h505.6c67.2 0 80-92.8 80-80v96C864 672 828.8 704 780.8 704H278.4V806.4c0 25.6-25.6 32-48 19.2l-224-147.2c-3.2-6.4-6.4-12.8-6.4-19.2 0-6.4 3.2-16 9.6-19.2 137.6-92.8 211.2-144 224-153.6 16-12.8 44.8-6.4 44.8 19.2z m467.2-243.2V160H240C172.8 160 160 252.8 160 240v-96C160 96 195.2 64 243.2 64h502.4v-102.4c0-25.6 25.6-32 48-19.2l224 147.2c6.4 6.4 9.6 12.8 9.6 19.2s-3.2 16-9.6 19.2c-137.6 92.8-211.2 144-224 153.6-19.2 12.8-48 6.4-48-19.2z"  horiz-adv-x="1027" />
      
      <glyph glyph-name="sdoc-adjust" unicode="&#59012;" d="M230.4 844.8L51.2 665.6c-25.6-25.6-25.6-64 0-89.6L704-76.8c25.6-25.6 64-22.4 89.6 0l179.2 179.2c25.6 25.6 25.6 64 0 89.6L320 844.8c-25.6 25.6-64 25.6-89.6 0zM192 326.4l-48-96-96-48 96-48 48-96 48 96 96 48-96 48-48 96z m352 137.6l316.8-307.2-118.4-115.2-313.6 307.2 115.2 115.2z m-83.2 76.8L352 435.2 169.6 617.6l112 108.8 179.2-185.6zM832 848l-48-96-96-48 96-48 48-96 48 96 96 48-96 48-48 96z m-262.4 0l-28.8-57.6-57.6-28.8 57.6-28.8 28.8-60.8 28.8 57.6 57.6 28.8-57.6 28.8-28.8 60.8z"  horiz-adv-x="1024" />
      
      <glyph glyph-name="sdoc-check-mark" unicode="&#59005;" d="M44.8 371.2c-19.2 22.4-16 54.4 6.4 73.6s54.4 16 73.6-6.4l243.2-300.8L896 745.6c19.2 22.4 54.4 28.8 76.8 9.6 22.4-19.2 25.6-51.2 6.4-76.8-384-441.6-576-665.6-588.8-678.4-12.8-16-35.2-12.8-44.8 0-6.4 6.4-105.6 134.4-300.8 371.2z"  horiz-adv-x="1024" />
      
      <glyph glyph-name="sdoc-play" unicode="&#59004;" d="M512 896C230.4 896 0 665.6 0 384s230.4-512 512-512 512 230.4 512 512c0 134.4-54.4 265.6-150.4 361.6S646.4 896 512 896z m0-944c-236.8 0-432 192-432 432S275.2 816 512 816s432-192 432-432c0-115.2-44.8-224-124.8-304s-192-128-307.2-128z m185.6 457.6l-134.4 76.8-140.8 83.2c-9.6 3.2-19.2 3.2-25.6-3.2-6.4-6.4-12.8-16-9.6-25.6v-320c0-9.6 3.2-19.2 9.6-25.6s16-6.4 25.6-3.2l140.8 83.2 134.4 76.8c9.6 6.4 12.8 16 12.8 25.6s-6.4 28.8-12.8 32z"  horiz-adv-x="1024" />
      
      <glyph glyph-name="sdoc-video" unicode="&#59003;" d="M969.6 832c28.8 0 54.4-25.6 54.4-57.6v-784c0-32-25.6-57.6-54.4-57.6H54.4C25.6-64 0-38.4 0-6.4V774.4C0 806.4 25.6 832 54.4 832h915.2zM928 736H96v-704h832V736zM348.8 608l380.8-227.2-380.8-227.2V608z"  horiz-adv-x="1024" />
      
      <glyph glyph-name="sdoc-mark-as-resolved" unicode="&#59002;" d="M512 896c281.6 0 512-230.4 512-512s-230.4-512-512-512S0 102.4 0 384 230.4 896 512 896z m0-96C281.6 800 96 614.4 96 384s185.6-416 416-416 416 185.6 416 416S742.4 800 512 800z m272-243.2c19.2-22.4 16-54.4 0-70.4-6.4-6.4-64-70.4-124.8-134.4l-22.4-25.6c-57.6-64-115.2-121.6-124.8-134.4-22.4-25.6-44.8-35.2-70.4-35.2-25.6 0-44.8 9.6-64 28.8s-121.6 140.8-140.8 160-12.8 54.4 6.4 70.4 51.2 16 70.4-3.2c12.8-12.8 54.4-60.8 131.2-144 169.6 182.4 259.2 281.6 268.8 291.2 16 19.2 51.2 19.2 70.4-3.2z"  horiz-adv-x="1024" />
      
      <glyph glyph-name="sdoc-multi-column" unicode="&#59001;" d="M236.8 864l160-416h-73.6l-38.4 105.6H112L73.6 448H0L160 864h76.8zM198.4 790.4L131.2 608h134.4L198.4 790.4zM0 352h448v-64H0v64z m0-128h448v-64H0v64z m0-128h448v-64H0v64z m0-128h320v-64H0v64zM768 864c41.6 0 73.6-9.6 96-28.8 22.4-19.2 32-44.8 32-73.6 0-22.4-6.4-41.6-16-60.8-12.8-16-28.8-28.8-48-35.2 28.8-6.4 48-16 60.8-32 12.8-16 19.2-38.4 19.2-67.2 0-41.6-16-73.6-41.6-92.8-25.6-16-57.6-25.6-102.4-25.6h-192V864h192z m-9.6-230.4h-115.2v-128h112c25.6 0 44.8 3.2 60.8 12.8 19.2 9.6 28.8 25.6 28.8 51.2 0 22.4-6.4 41.6-19.2 51.2-12.8 6.4-35.2 12.8-67.2 12.8z m-9.6 176h-105.6v-118.4h105.6c28.8 0 48 6.4 60.8 16 12.8 9.6 19.2 25.6 19.2 48 0 19.2-6.4 35.2-19.2 41.6-12.8 6.4-32 12.8-60.8 12.8zM576 352h448v-64H576v64z m0-128h448v-64H576v64z m0-128h448v-64H576v64z m0-128h320v-64H576v64z"  horiz-adv-x="1024" />
      
      <glyph glyph-name="sdoc-table-of-content-outline" unicode="&#59000;" d="M0 800h128v-96H0zM192 432h128v-96H192zM512 432h512v-96H512zM320 800h704v-96H320zM0 64h128v-96H0zM320 64h704v-96H320z"  horiz-adv-x="1024" />
      
      <glyph glyph-name="sdoc-table-of-content" unicode="&#58920;" d="M64 800h512c35.2 0 64-28.8 64-64s-28.8-64-64-64H64C28.8 672 0 700.8 0 736s28.8 64 64 64z m934.4-444.8l-12.8-12.8-172.8-172.8c-25.6-25.6-64-25.6-89.6 0-25.6 25.6-25.6 64 0 89.6l134.4 134.4-134.4 134.4c-25.6 25.6-25.6 64 0 89.6 25.6 25.6 64 25.6 89.6 0l172.8-172.8 9.6-9.6c12.8-12.8 19.2-25.6 19.2-41.6v-3.2c0-12.8-9.6-28.8-16-35.2zM64 448h800c35.2 0 64-28.8 64-64s-28.8-64-64-64H64c-35.2 0-64 28.8-64 64s28.8 64 64 64z m0-352h512c35.2 0 64-28.8 64-64s-28.8-64-64-64H64c-35.2 0-64 28.8-64 64s28.8 64 64 64z"  horiz-adv-x="1024" />
      
      <glyph glyph-name="sdoc-info" unicode="&#58999;" d="M512 896c281.6 0 512-230.4 512-512s-230.4-512-512-512S0 102.4 0 384 230.4 896 512 896z m0-96C281.6 800 96 614.4 96 384s185.6-416 416-416 416 185.6 416 416c0 108.8-44.8 217.6-121.6 294.4S620.8 800 512 800z m32-352c19.2 0 32-12.8 32-32v-256c0-19.2-12.8-32-32-32h-64c-19.2 0-32 12.8-32 32V416c0 19.2 12.8 32 32 32h64z m-19.2 192c9.6 0 16-3.2 22.4-9.6 3.2-3.2 6.4-6.4 9.6-6.4 25.6-25.6 25.6-64 0-89.6-3.2-3.2-6.4-6.4-9.6-6.4-6.4-3.2-16-6.4-22.4-9.6h-25.6c-9.6 0-16 3.2-22.4 9.6-3.2 3.2-6.4 6.4-9.6 6.4-25.6 25.6-25.6 64 0 89.6 3.2 3.2 6.4 6.4 9.6 6.4 6.4 3.2 16 6.4 22.4 9.6h25.6z"  horiz-adv-x="1024" />
      
      <glyph glyph-name="sdoc-inline-code" unicode="&#58998;" d="M1024 384l-272-288-67.2 70.4 204.8 217.6-204.8 217.6L752 672l272-288zM0 384l272-288 67.2 70.4L134.4 384l204.8 217.6L272 672 0 384z m451.2-512l-99.2 3.2L579.2 896h99.2l-227.2-1024z"  horiz-adv-x="1024" />
      
      <glyph glyph-name="sdoc-sort" unicode="&#58996;" d="M294.4 790.4l201.6-204.8c19.2-19.2 19.2-51.2 0-73.6-19.2-19.2-51.2-19.2-70.4 0L320 620.8v-604.8c0-25.6-22.4-48-48-48S224-9.6 224 16V620.8L118.4 512c-19.2-19.2-48-19.2-67.2-3.2l-3.2 3.2c-19.2 19.2-19.2 51.2 0 73.6l201.6 204.8c12.8 12.8 32 12.8 44.8 0zM752 800c25.6 0 48-22.4 48-48v-604.8l105.6 108.8c19.2 19.2 51.2 19.2 70.4 0 19.2-19.2 19.2-51.2 0-73.6l-201.6-204.8c-12.8-12.8-32-12.8-44.8 0l-201.6 204.8c-19.2 19.2-19.2 51.2 0 73.6l3.2 3.2c19.2 16 48 16 67.2-3.2l105.6-108.8V752c0 25.6 22.4 48 48 48z"  horiz-adv-x="1024" />
      
      <glyph glyph-name="sdoc-set-up" unicode="&#58997;" d="M598.52384 809.6l12.8-92.8 6.4-38.4 35.2-16c12.8-6.4 28.8-16 41.6-25.6l32-19.2 35.2 12.8 92.8 35.2 86.4-140.8-76.8-54.4-32-25.6 3.2-38.4v-44.8l-3.2-38.4 32-25.6 76.8-57.6-83.2-140.8-92.8 35.2-35.2 12.8-32-19.2c-12.8-9.6-28.8-19.2-41.6-25.6l-35.2-16-6.4-38.4-12.8-92.8h-172.8l-12.8 92.8-6.4 38.4-35.2 16c-12.8 6.4-28.8 16-41.6 25.6l-32 19.2-35.2-12.8-92.8-35.2-86.4 140.8L160.12384 297.6l32 25.6-3.2 38.4V384v22.4l3.2 38.4-32 25.6-76.8 57.6 83.2 140.8 92.8-35.2 35.2-12.8 32 19.2c12.8 9.6 28.8 19.2 41.6 25.6l35.2 16 6.4 38.4 12.8 92.8h176m12.8 83.2H416.12384c-32 0-57.6-22.4-60.8-51.2l-16-105.6c-19.2-9.6-35.2-19.2-54.4-32L182.52384 748.8c-9.6 3.2-16 3.2-22.4 3.2-22.4 0-41.6-9.6-54.4-28.8L6.52384 560c-12.8-28.8-6.4-60.8 16-80l86.4-67.2c0-9.6-3.2-22.4-3.2-28.8 0-9.6 0-19.2 3.2-28.8L22.52384 288c-22.4-19.2-28.8-51.2-16-76.8l96-163.2c9.6-19.2 32-32 54.4-32 6.4 0 12.8 0 22.4 3.2l102.4 41.6c16-12.8 35.2-22.4 54.4-28.8l16-105.6c3.2-28.8 28.8-51.2 60.8-51.2H608.12384c32 0 57.6 22.4 60.8 51.2l16 105.6c19.2 9.6 35.2 19.2 54.4 28.8l102.4-41.6c6.4-3.2 16-3.2 22.4-3.2 22.4 0 41.6 9.6 54.4 28.8l99.2 166.4c16 25.6 9.6 57.6-16 76.8l-86.4 67.2c0 9.6 3.2 19.2 3.2 28.8s0 22.4-3.2 28.8l86.4 67.2c22.4 19.2 28.8 51.2 16 76.8l-96 163.2c-9.6 19.2-32 32-54.4 32-6.4 0-12.8 0-22.4-3.2l-102.4-41.6c-16 12.8-35.2 22.4-54.4 28.8L672.12384 844.8C665.72384 873.6 640.12384 896 611.32384 896zM512.12384 512c70.4 0 128-57.6 128-128s-57.6-128-128-128-128 57.6-128 128 57.6 128 128 128m0 86.4a214.4 214.4 0 1 1 0-428.8 214.4 214.4 0 0 1 0 428.8z"  horiz-adv-x="1026" />
      
      <glyph glyph-name="sdoc-filter1" unicode="&#58994;" d="M617.6 160c28.8 0 54.4-22.4 54.4-48s-22.4-48-54.4-48h-214.4c-28.8 0-54.4 22.4-54.4 48s22.4 48 54.4 48h214.4z m169.6 272c25.6 0 44.8-22.4 44.8-48s-19.2-48-44.8-48H236.8c-25.6 0-44.8 22.4-44.8 48s19.2 48 44.8 48h550.4z m236.8 224c0-25.6-22.4-48-48-48h-928C22.4 608 0 630.4 0 656S22.4 704 48 704h931.2c22.4 0 44.8-22.4 44.8-48z"  horiz-adv-x="1024" />
      
      <glyph glyph-name="sdoc-eye-slash" unicode="&#58995;" d="M83.84448 790.4l156.8-124.8c73.6 57.6 166.4 99.2 275.2 99.2 134.4 0 243.2-64 320-137.6 76.8-73.6 131.2-163.2 153.6-224 6.4-12.8 6.4-28.8 0-41.6-22.4-51.2-64-124.8-124.8-192l140.8-112c19.2-16 22.4-44.8 6.4-67.2-16-19.2-48-22.4-67.2-6.4l-928 736C-2.55552 736-5.75552 764.8 10.24448 787.2s51.2 19.2 73.6 3.2z m32-256l73.6-60.8c-25.6-35.2-44.8-70.4-57.6-96 22.4-51.2 64-121.6 128-179.2 67.2-64 153.6-112 256-112 44.8 0 86.4 9.6 124.8 22.4l76.8-64c-57.6-32-124.8-51.2-201.6-51.2-134.4 0-243.2 64-320 137.6-76.8 73.6-131.2 163.2-153.6 224-6.4 12.8-6.4 28.8 0 41.6 12.8 41.6 38.4 89.6 73.6 137.6z m185.6-153.6l112-89.6c12.8-16 25.6-25.6 44.8-35.2l112-89.6c-19.2-3.2-35.2-6.4-54.4-6.4-118.4 0-214.4 99.2-214.4 220.8z m214.4 288c-76.8 0-144-25.6-198.4-64l67.2-51.2c35.2 28.8 80 44.8 131.2 44.8 118.4 0 214.4-99.2 214.4-220.8 0-32-6.4-60.8-19.2-89.6l86.4-70.4c48 54.4 83.2 112 102.4 153.6-22.4 51.2-64 121.6-128 179.2-64 67.2-150.4 118.4-256 118.4z m0-153.6h-3.2c3.2-9.6 3.2-19.2 3.2-28.8 0-12.8-3.2-25.6-6.4-38.4l134.4-108.8c3.2 12.8 3.2 22.4 3.2 35.2 3.2 80-57.6 140.8-131.2 140.8z"  horiz-adv-x="1027" />
      
      <glyph glyph-name="sdoc-settings" unicode="&#58993;" d="M976 467.2c3.2-3.2 3.2-3.2 3.2-9.6L976 326.4c0-3.2-3.2-12.8-9.6-12.8l-108.8-38.4c-3.2-12.8-12.8-28.8-19.2-41.6l51.2-102.4c0-3.2 0-12.8-3.2-19.2l-96-96c-3.2-3.2-12.8-9.6-19.2-3.2L668.8 64c-12.8-9.6-28.8-12.8-41.6-19.2L588.8-64c0-3.2-3.2-9.6-12.8-9.6H444.8c-3.2 0-12.8 3.2-12.8 9.6l-38.4 108.8c-12.8 3.2-28.8 12.8-41.6 19.2l-102.4-51.2c-3.2 0-12.8 0-19.2 3.2l-96 96c-6.4 0-12.8 9.6-6.4 16l51.2 102.4c-9.6 12.8-12.8 28.8-19.2 41.6L51.2 310.4c-3.2 0-9.6 3.2-9.6 12.8V454.4c0 3.2 3.2 12.8 9.6 12.8L160 508.8c3.2 12.8 9.6 28.8 19.2 41.6L128 656c-6.4 6.4-6.4 12.8 0 12.8l96 96c3.2 9.6 9.6 9.6 16 3.2l102.4-51.2c12.8 9.6 28.8 12.8 41.6 19.2l38.4 112c0 3.2 3.2 9.6 12.8 9.6h128c3.2 0 12.8-3.2 12.8-9.6l38.4-108.8c12.8-3.2 28.8-12.8 41.6-19.2l102.4 51.2c3.2 0 12.8 0 19.2-3.2l96-96c3.2-3.2 9.6-12.8 3.2-19.2l-51.2-102.4c9.6-12.8 12.8-28.8 19.2-41.6L976 467.2zM566.4 614.4c-176 48-329.6-108.8-288-288 19.2-76.8 86.4-140.8 160-160 176-48 329.6 108.8 288 288-19.2 80-80 140.8-160 160z"  horiz-adv-x="1024" />
      
      <glyph glyph-name="sdoc-seatable-table" unicode="&#58991;" d="M384 896c35.2 0 64-28.8 64-64v-320c0-35.2-28.8-64-64-64H64c-35.2 0-64 28.8-64 64V832C0 867.2 28.8 896 64 896h320z m-32-96H96v-256h256V800z m608 96c35.2 0 64-28.8 64-64v-320c0-35.2-28.8-64-64-64H640c-35.2 0-64 28.8-64 64V832c0 35.2 28.8 64 64 64h320z m-32-96h-256v-256h256V800zM384 320c35.2 0 64-28.8 64-64v-320c0-35.2-28.8-64-64-64H64c-35.2 0-64 28.8-64 64V256c0 35.2 28.8 64 64 64h320z m-32-96H96v-256h256v256z m608 96c35.2 0 64-28.8 64-64v-320c0-35.2-28.8-64-64-64H640c-35.2 0-64 28.8-64 64V256c0 35.2 28.8 64 64 64h320z m-32-96h-256v-256h256v256z"  horiz-adv-x="1024" />
      
      <glyph glyph-name="sdoc-more-vertical-left" unicode="&#58992;" d="M703.629257 704.370743c-54.294956 0-95.814629 41.519672-95.814628 95.814628s41.519672 95.814629 95.814628 95.814629 95.814629-41.519672 95.814629-95.814629-41.519672-95.814629-95.814629-95.814628z m0-415.196724c-54.294956 0-95.814629 41.519672-95.814628 95.814628s41.519672 95.814629 95.814628 95.814629 95.814629-41.519672 95.814629-95.814629-41.519672-95.814629-95.814629-95.814628z m0-415.196724c-54.294956 0-95.814629 41.519672-95.814628 95.814628s41.519672 95.814629 95.814628 95.814629 95.814629-41.519672 95.814629-95.814629-41.519672-95.814629-95.814629-95.814628zM310.78928 857.674149L16.957752 432.895962c-19.162926-28.744389-19.162926-76.651703 0-105.396092L310.78928-94.084496c19.162926-28.744389 60.682598-44.713493 89.426987-25.550568 28.744389 22.356747 38.325851 63.876419 19.162925 92.620808L125.547665 381.794826l287.443885 405.615262c25.550568 35.13203 25.550568 73.457882-12.775283 95.814628s-67.07024 3.193821-89.426987-25.550567z"  horiz-adv-x="1024" />
      
      <glyph glyph-name="sdoc-text-style" unicode="&#58990;" d="M147.2 156.8h160l67.2 153.6h278.4L720 156.8h160L598.4 896H428.8L147.2 156.8z m348.8 512h35.2l83.2-227.2H409.6L496 668.8zM774.4-128V32h160v-160h-160zM419.2 32h160v-160h-160V32zM96 32h160v-160H96V32z"  horiz-adv-x="1024" />
      
      <glyph glyph-name="sdoc-choose-column" unicode="&#58989;" d="M620.8 438.4l384-214.4-144-41.6L931.2 32c16-25.6 6.4-60.8-16-80-25.6-16-57.6-16-80 6.4L704 96 592-6.4l28.8 444.8zM464 160c9.6 0 16-6.4 16-16v-128c0-9.6-6.4-16-16-16H48c-9.6 0-16 6.4-16 16V144c0 9.6 6.4 16 16 16h416z m64 320c9.6 0 16-6.4 16-16v-128c0-9.6-6.4-16-16-16H48c-9.6 0-16 6.4-16 16V464c0 9.6 6.4 16 16 16h480zM944 800c9.6 0 16-6.4 16-16v-128c0-9.6-6.4-16-16-16H48c-9.6 0-16 6.4-16 16V784c0 9.6 6.4 16 16 16h896z"  horiz-adv-x="1024" />
      
      <glyph glyph-name="sdoc-history-switch" unicode="&#58988;" d="M512 896C339.2 896 188.8 812.8 96 681.6V768c0 25.6-22.4 48-48 48S0 793.6 0 768v-192c0-25.6 22.4-48 48-48H256c16 0 35.2 9.6 41.6 22.4 9.6 16 9.6 35.2 0 48-6.4 16-25.6 25.6-41.6 25.6H172.8C246.4 729.6 371.2 800 512 800c230.4 0 416-185.6 416-416s-185.6-416-416-416c-195.2 0-355.2 131.2-403.2 310.4-6.4 19.2-22.4 32-44.8 32-12.8 0-25.6-6.4-35.2-12.8s-12.8-22.4-12.8-35.2c0-3.2 0-9.6 3.2-12.8v-6.4C80 28.799999999999955 278.4-128 512-128c281.6 0 512 230.4 512 512S793.6 896 512 896z m0-214.4c-12.8 0-25.6-6.4-35.2-12.8-9.6-9.6-12.8-22.4-12.8-35.2v-288c0-12.8 6.4-25.6 12.8-35.2 9.6-9.6 22.4-12.8 35.2-12.8h208c16 0 32 9.6 41.6 22.4s9.6 32 0 48-25.6 25.6-41.6 22.4h-160V633.6c0 12.8-6.4 25.6-12.8 35.2-9.6 6.4-22.4 12.8-35.2 12.8z"  horiz-adv-x="1024" />
      
      <glyph glyph-name="sdoc-save" unicode="&#58987;" d="M972.8 828.8L38.4 448c-51.2-22.4-51.2-51.2 3.2-70.4l227.2-70.4 92.8-288c12.8-38.4 44.8-44.8 70.4-16l118.4 124.8 233.6-179.2c28.8-22.4 60.8-9.6 70.4 28.8L1024 784c6.4 38.4-16 57.6-51.2 44.8zM832 646.4L432 272c-6.4-6.4-12.8-19.2-16-28.8l-19.2-172.8c-3.2-19.2-9.6-19.2-12.8-3.2l-76.8 243.2c-3.2 9.6 0 22.4 9.6 25.6l505.6 320c32 19.2 38.4 16 9.6-9.6z"  horiz-adv-x="1025" />
      
      <glyph glyph-name="sdoc-center-alignment" unicode="&#58984;" d="M560 896v-128H832v-320h-272v-128H928v-320H560v-128h-96v128H96V320h368v128H192V768h272V896h96zM832 224H192v-128h640v128zM736 672H288v-128h448V672z"  horiz-adv-x="1024" />
      
      <glyph glyph-name="sdoc-bottom-alignment" unicode="&#58985;" d="M0-64v96h1024v-96H0z m448 192V832H128v-704h320z m-96 96H224V736h128v-512z m544-96V640H576v-512h320z m-96 96h-128V544h128v-320z"  horiz-adv-x="1024" />
      
      <glyph glyph-name="sdoc-top-alignment" unicode="&#58986;" d="M0 832v-96h1024V832H0z m448-192v-704H128V640h320z m-96-96H224v-512h128V544z m544 96v-512H576V640h320z m-96-96h-128v-320h128V544z"  horiz-adv-x="1024" />
      
      <glyph glyph-name="sdoc-all-read" unicode="&#58973;" d="M883.2 768h121.6c9.6 0 19.2-9.6 19.2-19.2v-60.8c0-6.4-9.6-16-19.2-16h-121.6c-9.6 0-19.2 9.6-19.2 19.2V748.8c0 9.6 9.6 19.2 19.2 19.2z m-284.8-704h406.4c12.8 0 22.4-9.6 22.4-19.2v-60.8c0-9.6-9.6-19.2-22.4-19.2H598.4c-12.8 0-22.4 9.6-22.4 19.2v60.8c0 9.6 9.6 19.2 22.4 19.2z m403.2 352c12.8 0 22.4-9.6 22.4-19.2v-60.8c0-9.6-9.6-19.2-22.4-19.2h-246.4c-12.8 0-22.4 9.6-22.4 19.2v60.8c0 9.6 9.6 19.2 22.4 19.2h246.4zM761.6 860.8c-3.2 3.2-9.6 3.2-12.8 3.2-6.4 0-9.6-3.2-12.8-9.6L304 70.4 67.2 256c-9.6 6.4-22.4 3.2-28.8-6.4L0 188.8c-3.2-9.6 0-22.4 9.6-28.8l336-256L819.2 803.2c6.4 9.6 3.2 22.4-6.4 28.8l-51.2 28.8z"  horiz-adv-x="1027" />
      
      <glyph glyph-name="sdoc-freezed" unicode="&#58983;" d="M512 384m-512 0a512 512 0 1 1 1024 0 512 512 0 1 1-1024 0ZM316.8 716.8c118.4 70.4 265.6 70.4 384 3.2s192-195.2 192-332.8c0-137.6-73.6-265.6-195.2-332.8-182.4-105.6-416-41.6-521.6 140.8S134.4 608 316.8 716.8z m348.8-604.8c137.6 80 195.2 249.6 131.2 396.8L259.2 195.20000000000005c92.8-124.8 268.8-163.2 406.4-83.2zM352 652.8c-137.6-80-192-249.6-128-393.6l537.6 310.4c-96 128-272 163.2-409.6 83.2z"  horiz-adv-x="1024" />
      
      <glyph glyph-name="sdoc-callout-color" unicode="&#58982;" d="M819.2 777.6c147.2-121.6 195.2-291.2 195.2-300.8v-3.2c22.4-118.4 3.2-208-51.2-262.4-86.4-83.2-227.2-57.6-249.6-54.4-25.6 3.2-44.8-6.4-60.8-22.4-16-19.2-19.2-44.8-12.8-60.8 12.8-44.8 16-76.8 6.4-102.4-28.8-67.2-89.6-99.2-182.4-99.2-22.4 0-44.8 3.2-67.2 6.4h-6.4C217.6-96 96 76.8 92.8 86.4-76.8 348.8 9.6 611.2 166.4 758.4c160 147.2 422.4 208 652.8 19.2zM230.4 688c-118.4-112-198.4-352-54.4-544C224 80 288 32 352 0s144-32 176 0 16 64 16 112 16 80 48 112 99.2 38.4 144 32 99.2-28.8 160 32c38.4 38.4 41.6 80 25.6 169.6-3.2 12.8-44.8 150.4-163.2 246.4-185.6 153.6-396.8 102.4-528-16z m-9.6-259.2c35.2 0 60.8-28.8 60.8-64s-28.8-64-60.8-64-60.8 28.8-60.8 64 25.6 64 60.8 64z m563.2 73.6c35.2 0 60.8-28.8 60.8-64s-28.8-64-60.8-64c-35.2 0-60.8 28.8-60.8 64s25.6 64 60.8 64zM291.2 614.4c35.2 0 60.8-28.8 60.8-64 0-22.4-12.8-41.6-32-54.4-19.2-12.8-41.6-12.8-60.8 0-19.2 12.8-32 32-32 54.4 3.2 38.4 32 64 64 64z m390.4 54.4c35.2 0 60.8-28.8 60.8-64s-28.8-64-60.8-64-60.8 28.8-60.8 64 25.6 64 60.8 64z m-204.8 51.2c35.2 0 60.8-28.8 60.8-64s-28.8-64-60.8-64-60.8 32-60.8 67.2 25.6 60.8 60.8 60.8z"  horiz-adv-x="1024" />
      
      <glyph glyph-name="sdoc-callout-icon" unicode="&#58981;" d="M512-32c230.4 0 416 185.6 416 416S742.4 800 512 800 96 614.4 96 384s185.6-416 416-416z m0-96C230.4-128 0 102.4 0 384S230.4 896 512 896s512-230.4 512-512-230.4-512-512-512z m-160 528c44.8 0 80 35.2 80 80s-35.2 80-80 80-80-35.2-80-80 35.2-80 80-80z m320 0c44.8 0 80 35.2 80 80s-35.2 80-80 80-80-35.2-80-80 35.2-80 80-80z m-160-246.4c-80 0-153.6 51.2-188.8 128 0 0-3.2 32-38.4 32-35.2 0-32-32-32-32 35.2-108.8 137.6-192 256-192s227.2 83.2 256 192c0 0 0 32-32 32s-35.2-32-35.2-32c-25.6-73.6-102.4-128-185.6-128z"  horiz-adv-x="1024" />
      
      <glyph glyph-name="sdoc-trumpet" unicode="&#58980;" d="M153.6 480h204.8l19.2-416c3.2-67.2-48-124.8-115.2-128H256c-67.2 0-121.6 54.4-121.6 121.6V64l19.2 416zM172.8 668.8L544 704v-448L172.8 291.2C76.8 297.6 0 380.8 0 480s76.8 182.4 172.8 188.8zM912 832C864 832 611.2 726.4 544 704c-48-16-128-96-128-224s67.2-201.6 128-224c73.6-28.8 198.4-73.6 368-128V832zM816 480a336 96 90 1 1 192 0 336 96 90 1 1-192 0ZM912 128c-73.6 0-112 176-112 352s38.4 352 112 352S1024 656 1024 480s-38.4-352-112-352z m0 672c-32 0-80-124.8-80-320s48-320 80-320S992 284.8 992 480 944 800 912 800z"  horiz-adv-x="1024" />
      
      <glyph glyph-name="sdoc-light-bulb" unicode="&#58979;" d="M160 553.6c0-124.8 70.4-233.6 172.8-294.4 19.2-9.6 19.2-28.8 19.2-48V128c3.2 0 19.2 3.2 22.4 3.2h275.2c3.2 0 19.2 0 22.4-3.2v83.2c0 22.4 0 41.6 19.2 51.2 137.6 76.8 201.6 233.6 160 384S672 896 512 896C316.8 896 160 742.4 160 553.6zM438.4 227.2c0 19.2-9.6 38.4-28.8 48-102.4 60.8-163.2 169.6-163.2 288C249.6 729.6 377.6 873.6 544 896c-128 0-198.4-16-272-80s-112-160-112-256c0-121.6 60.8-230.4 160-288 16-9.6 32-25.6 32-44.8V128c3.2 0 6.4 3.2 9.6 3.2h76.8v96zM566.4 131.2c-9.6 0-16 6.4-16 16v144c0 12.8 3.2 28.8 12.8 38.4l22.4 28.8c3.2 6.4 6.4 12.8 6.4 19.2v150.4c0 9.6 6.4 16 16 16s16-6.4 16-16v-150.4c0-16-6.4-28.8-12.8-38.4l-22.4-28.8c-3.2-6.4-6.4-12.8-6.4-19.2v-144c0-3.2-3.2-9.6-3.2-12.8-3.2 0-9.6-3.2-12.8-3.2m-83.2 0c-3.2 0-9.6 3.2-12.8 3.2-3.2 3.2-3.2 6.4-3.2 12.8v144c0 6.4-3.2 16-6.4 19.2l-22.4 28.8c-9.6 12.8-12.8 25.6-12.8 38.4v150.4c0 9.6 6.4 16 16 16s16-6.4 16-16v-150.4c0-6.4 3.2-16 6.4-19.2l22.4-28.8c9.6-12.8 12.8-25.6 12.8-38.4v-144c0-3.2-3.2-9.6-3.2-12.8-3.2 0-9.6-3.2-12.8-3.2M633.6 777.6c-6.4 3.2-16 16-9.6 22.4s16 9.6 25.6 3.2c67.2-32 118.4-96 137.6-166.4 3.2-9.6-3.2-16-12.8-19.2-9.6-3.2-16 3.2-19.2 12.8-16 64-60.8 115.2-121.6 147.2zM448-32v-16c0-44.8 19.2-80 80-80s80 35.2 80 80V-32h-160zM480-32h-64v-12.8c0-25.6 9.6-51.2 32-67.2s32-16 96-16c-48 16-64 54.4-64 83.2V-32zM624 496h-201.6c-6.4 0-9.6 3.2-12.8 6.4s-3.2 9.6 0 16 9.6 6.4 12.8 6.4h201.6c6.4 0 9.6-3.2 12.8-6.4 3.2-6.4 3.2-9.6 0-16s-6.4-6.4-12.8-6.4M416 32h192c19.2 0 32-12.8 32-32v-32c0-19.2-12.8-32-32-32h-192c-19.2 0-32 12.8-32 32v32c0 19.2 12.8 32 32 32zM406.4-22.4c-9.6 0-19.2 9.6-22.4 22.4v-32c0-19.2 12.8-32 32-32h192c19.2 0 32 12.8 32 32v32c-3.2-12.8-12.8-22.4-22.4-22.4h-211.2zM384 96h256c19.2 0 32-12.8 32-32v-32c0-19.2-12.8-32-32-32h-256c-19.2 0-32 12.8-32 32v32c0 19.2 12.8 32 32 32zM380.8 41.6c-12.8 0-25.6 9.6-28.8 22.4v-32c0-19.2 12.8-32 32-32h256c19.2 0 32 12.8 32 32v32c-3.2-12.8-16-22.4-28.8-22.4h-262.4zM384 160h256c19.2 0 32-12.8 32-32v-32c0-19.2-12.8-32-32-32h-256c-19.2 0-32 12.8-32 32v32c0 19.2 12.8 32 32 32zM380.8 105.6c-12.8 0-25.6 9.6-28.8 22.4v-32c0-19.2 12.8-32 32-32h256c19.2 0 32 12.8 32 32v32c-3.2-12.8-16-22.4-28.8-22.4h-262.4z"  horiz-adv-x="1024" />
      
      <glyph glyph-name="sdoc-danger" unicode="&#58978;" d="M999.1888 99.2L621.5888 784c-57.6 105.6-156.8 105.6-214.4 0L26.3888 99.2C-34.4112-9.6 13.5888-96 131.9888-96h761.6c118.4 0 166.4 86.4 105.6 195.2zM515.9888 0c-35.2 0-64 28.8-64 64s28.8 64 64 64 64-28.8 64-64c3.2-35.2-25.6-64-64-64zM576.7888 192h-128V640h128z"  horiz-adv-x="1025" />
      
      <glyph glyph-name="sdoc-prohibit" unicode="&#58977;" d="M876.8 25.6C969.6 118.4 1024 246.4 1024 384c0 281.6-230.4 512-512 512-137.6 0-265.6-54.4-358.4-147.2l-3.2-3.2-3.2-3.2C54.4 649.6 0 521.6 0 384c0-281.6 230.4-512 512-512 137.6 0 265.6 54.4 358.4 147.2l3.2 3.2 3.2 3.2zM896 384c0-83.2-25.6-160-73.6-224L288 697.6C352 742.4 428.8 768 512 768c211.2 0 384-172.8 384-384zM128 384c0 83.2 25.6 160 73.6 224L736 70.4c-64-44.8-140.8-73.6-224-73.6C300.8 0 128 172.8 128 384z"  horiz-adv-x="1024" />
      
      <glyph glyph-name="sdoc-filter" unicode="&#58974;" d="M987.61568 480h-243.2c-22.4 0-38.4 22.4-38.4 48s19.2 48 38.4 48h243.2c22.4 0 38.4-22.4 38.4-48s-19.2-48-38.4-48z m-3.2-256h-265.6c-25.6 0-41.6 22.4-41.6 48s22.4 48 41.6 48h265.6c25.6 0 41.6-22.4 41.6-48s-22.4-48-41.6-48z m-9.6-288h-313.6c-28.8 0-51.2 22.4-51.2 48s25.6 48 51.2 48h313.6c28.8 0 51.2-22.4 51.2-48s-25.6-48-51.2-48zM546.01568 444.8V32l-176-112c-38.4-22.4-80-12.8-102.4 25.6-6.4 9.6-9.6 25.6-9.6 38.4V448L21.21568 697.6c-28.8 32-28.8 83.2 3.2 115.2 12.8 12.8 35.2 19.2 51.2 19.2h611.2c19.2 0 44.8-3.2 60.8-16 41.6-32 28.8-89.6 0-121.6L546.01568 444.8z m-192 3.2v-409.6l96 64v352c0 22.4 6.4 44.8 22.4 60.8L658.01568 736h-544l214.4-220.8c16-16 25.6-41.6 25.6-67.2z"  horiz-adv-x="1026" />
      
      <glyph glyph-name="sdoc-chart" unicode="&#58971;" d="M96 800H0v-864h1024v96H96V800z m128-384v-320h160V416H224z m288 224v-544h160V640h-160z m288 192v-736h160V832h-160z"  horiz-adv-x="1024" />
      
      <glyph glyph-name="sdoc-comment-quote" unicode="&#58976;" d="M48 896C73.6 896 96 873.6 96 848v-928c0-25.6-22.4-48-48-48S0-105.6 0-80v928C0 873.6 22.4 896 48 896z m224-665.6c51.2 16 96 48 124.8 92.8 32 41.6 48 118.4 48 163.2-9.6-6.4-22.4-6.4-44.8-6.4-38.4 0-70.4 12.8-99.2 41.6-25.6 28.8-41.6 64-41.6 108.8s16 80 44.8 108.8 70.4 41.6 108.8 41.6c51.2 0 89.6-22.4 124.8-64 32-41.6 48-96 48-160 0-102.4-28.8-220.8-83.2-294.4-54.4-76.8-131.2-128-227.2-153.6l-3.2 121.6z m438.4 6.4c51.2 16 89.6 48 124.8 92.8 35.2 41.6 51.2 118.4 48 163.2-9.6-6.4-22.4-6.4-44.8-6.4-38.4 0-73.6 12.8-99.2 41.6-28.8 28.8-41.6 64-41.6 108.8s16 80 41.6 108.8c32 25.6 70.4 38.4 112 38.4 51.2 0 89.6-22.4 121.6-64s48-96 48-160c0-102.4-28.8-220.8-83.2-294.4-54.4-76.8-131.2-128-227.2-153.6v124.8z"  horiz-adv-x="1024" />
      
      <glyph glyph-name="sdoc-find-replace" unicode="&#58975;" d="M468.66016 896C260.66016 896 81.46016 761.6 20.66016 566.4s16-409.6 185.6-521.6 396.8-102.4 553.6 25.6l185.6-185.6c19.2-16 48-16 64 0 19.2 19.2 19.2 48 0 64l-185.6 185.6c115.2 140.8 137.6 332.8 60.8 492.8S647.86016 896 468.66016 896zM97.46016 432C97.46016 636.8 260.66016 800 465.46016 800S833.46016 636.8 833.46016 432 670.26016 64 465.46016 64 97.46016 227.2 97.46016 432z"  horiz-adv-x="1025" />
      
      <glyph glyph-name="sdoc-jump-to" unicode="&#58970;" d="M361.6 896c32 0 54.4-16 54.4-48S393.6 800 361.6 800H96v-832h832v262.4c0 32 16 57.6 48 57.6s48-25.6 48-57.6v-300.8c0-32-28.8-57.6-60.8-57.6H60.8c-32 0-60.8 25.6-60.8 57.6V835.2C0 870.4 25.6 896 60.8 896h300.8zM992 896c19.2 0 32-12.8 32-32v-332.8c0-28.8-19.2-51.2-48-51.2s-48 22.4-48 51.2V729.6L531.2 336c-6.4-9.6-19.2-16-35.2-16-12.8 0-25.6 6.4-35.2 16-19.2 19.2-19.2 51.2 0 70.4L857.6 800h-198.4c-28.8 0-51.2 19.2-51.2 48S630.4 896 656 896H992z"  horiz-adv-x="1024" />
      
      <glyph glyph-name="sdoc-callout" unicode="&#58972;" d="M992 352H32c-19.2 0-32 12.8-32 32V832c0 19.2 12.8 32 32 32h960c19.2 0 32-12.8 32-32v-448c0-19.2-12.8-32-32-32zM96 448h832V768H96v-320z m-96-224v-96h1024v96H0z m0-224v-96h576v96H0z"  horiz-adv-x="1024" />
      
      <glyph glyph-name="sdoc-add" unicode="&#58968;" d="M512-128C227.2-128 0 99.2 0 384S227.2 896 512 896s512-227.2 512-512-227.2-512-512-512z m-51.2 563.2H291.2c-19.2 0-35.2-12.8-35.2-35.2v-35.2c0-19.2 12.8-35.2 35.2-35.2h169.6V160c0-19.2 12.8-35.2 35.2-35.2h35.2c19.2 0 35.2 12.8 35.2 35.2v169.6H736c19.2 0 35.2 12.8 35.2 35.2v35.2c0 19.2-12.8 35.2-35.2 35.2h-169.6V604.8c0 19.2-12.8 35.2-35.2 35.2h-35.2c-19.2 0-35.2-12.8-35.2-35.2v-169.6z"  horiz-adv-x="1024" />
      
      <glyph glyph-name="sdoc-tag" unicode="&#58969;" d="M521.353986 860.33363l466.979644-466.979644c22.389435-22.389435 35.183398-51.175851 35.183398-83.160758s-12.793963-60.771324-35.183398-83.160759l-323.047562-319.849071c-22.389435-22.389435-51.175851-35.183398-79.962268-35.183398-31.984907 0-60.771324 12.793963-83.160758 35.183398L35.183398 374.163042c-25.587926 25.587926-38.381889 60.771324-31.984907 95.954721l31.984907 291.062655c6.396981 54.374342 47.977361 95.954721 102.351703 102.351703l291.062654 31.984907c31.984907 3.198491 67.168305-9.595472 92.756231-35.183398zM444.590209 767.577399L159.924536 735.592492l-31.984908-281.467182L578.926819-0.060372l316.65058 313.45209L444.590209 767.577399z m12.793963-127.939628c57.572833-57.572833 57.572833-147.130573 0-204.703406-25.587926-25.587926-63.969814-41.580379-102.351703-41.580379-38.381889 0-73.565286 12.793963-102.351703 41.580379-57.572833 57.572833-57.572833 147.130573 0 204.703406 57.572833 57.572833 150.329063 57.572833 204.703406 0z m-102.351703-70.366796c-6.396981 0-15.992454-3.198491-22.389435-9.595472-12.793963-12.793963-12.793963-31.984907 0-44.77887 12.793963-12.793963 31.984907-12.793963 44.77887 0 12.793963 12.793963 12.793963 31.984907 0 44.77887-6.396981 6.396981-12.793963 9.595472-22.389435 9.595472z"  horiz-adv-x="1024" />
      
      <glyph glyph-name="sdoc-describe" unicode="&#58967;" d="M992 352H32c-19.2 0-32 12.8-32 32V832c0 19.2 12.8 32 32 32h960c19.2 0 32-12.8 32-32v-448c0-19.2-12.8-32-32-32zM96 448h832V768H96v-320z m-96-224v-96h1024v96H0z m0-224v-96h576v96H0z"  horiz-adv-x="1024" />
      
      <glyph glyph-name="sdoc-add-comment" unicode="&#58939;" d="M960 896c35.2 0 64-28.8 64-64v-704c0-35.2-28.8-64-64-64h-224l-224-192-224 192H64c-35.2 0-64 28.8-64 64V832C0 867.2 28.8 896 64 896h896z m-32-96H96v-640h227.2l188.8-160 188.8 160H928V800zM288 528h448v-96H288zM464 704h96v-448h-96z"  horiz-adv-x="1024" />
      
      <glyph glyph-name="sdoc-comment-count" unicode="&#58966;" d="M1024 832v-704c0-35.2-28.8-64-64-64h-192l-256-192-224 192H64c-35.2 0-64 28.8-64 64V832C0 867.2 28.8 896 64 896h896c35.2 0 64-28.8 64-64z"  horiz-adv-x="1024" />
      
      <glyph glyph-name="sdoc-link-file" unicode="&#58964;" d="M889.6-96H134.4c-22.4 0-38.4 16-38.4 38.4V825.6C96 848 112 864 134.4 864h480c22.4 0 54.4-6.4 80-35.2 44.8-51.2 188.8-208 195.2-214.4 3.2-3.2 38.4-38.4 38.4-73.6v-598.4c0-9.6-3.2-19.2-9.6-25.6-6.4-9.6-16-12.8-28.8-12.8zM192 0h640V544h-224V768H192v-768z"  horiz-adv-x="1024" />
      
      <glyph glyph-name="sdoc-sm-close" unicode="&#58965;" d="M512 439.466667L230.4 721.066667l-25.6 25.6-55.466667-55.466667 25.6-25.6 281.6-281.6-281.6-281.6-25.6-25.6 55.466667-55.466667 25.6 25.6 281.6 281.6 281.6-281.6 25.6-25.6 55.466667 55.466667-25.6 25.6-281.6 281.6 281.6 281.6 25.6 25.6-55.466667 55.466667-25.6-25.6z"  horiz-adv-x="1024" />
      
      <glyph glyph-name="sdoc-merge-cell" unicode="&#58963;" d="M480 896v-288h-96V800H96v-832h288v192h96v-288H0V896h480zM313.6 528L480 384l-166.4-144v96H160v92.8h153.6v99.2zM1024 896v-1024H544v288h96v-192h288V800h-288v-192h-96V896h480z m-313.6-368v-99.2H864v-92.8h-153.6v-96L544 384l166.4 144z"  horiz-adv-x="1024" />
      
      <glyph glyph-name="sdoc-download" unicode="&#58962;" d="M582.4 326.4V793.6c0 41.6-32 70.4-70.4 70.4s-70.4-28.8-70.4-70.4v-467.2l-172.8 172.8c-25.6 25.6-70.4 25.6-96-3.2-25.6-25.6-25.6-70.4 0-96l291.2-291.2c25.6-25.6 70.4-25.6 96 0l291.2 291.2c25.6 25.6 25.6 70.4 3.2 96-25.6 25.6-70.4 25.6-96 3.2l-3.2-3.2-172.8-169.6z m-480-284.8h822.4c38.4 0 70.4-28.8 70.4-70.4s-32-67.2-73.6-67.2H102.4C60.8-96 32-67.2 32-25.6c0 35.2 28.8 67.2 70.4 67.2z"  horiz-adv-x="1024" />
      
      <glyph glyph-name="sdoc-next-page" unicode="&#58918;" d="M342.4 768c12.8 0 28.8-6.4 38.4-16l329.6-329.6c22.4-22.4 22.4-57.6 0-76.8L380.8 16c-22.4-22.4-57.6-22.4-76.8 0-22.4 22.4-22.4 57.6 0 76.8L595.2 384 304 675.2c-22.4 22.4-22.4 57.6 0 76.8 9.6 9.6 25.6 16 38.4 16z"  horiz-adv-x="1024" />
      
      <glyph glyph-name="sdoc-previous-page" unicode="&#58961;" d="M672 768c-12.8 0-28.8-6.4-38.4-16L304 422.4c-22.4-22.4-22.4-57.6 0-76.8L633.6 16c22.4-22.4 57.6-22.4 76.8 0 22.4 22.4 22.4 57.6 0 76.8L419.2 384l291.2 291.2c22.4 22.4 22.4 57.6 0 76.8-9.6 9.6-25.6 16-38.4 16z"  horiz-adv-x="1024" />
      
      <glyph glyph-name="sdoc-save-tip" unicode="&#58960;" d="M528 800c153.6 0 272-112 284.8-252.8 121.6-9.6 208-137.6 208-291.2 0-160-86.4-284.8-201.6-288H208c-96 0-208 124.8-208 284.8s89.6 294.4 227.2 288c9.6 0 16 0 22.4-3.2C291.2 694.4 374.4 800 528 800z m3.2-96c-99.2 0-179.2-73.6-208-256-48 3.2-76.8 3.2-96 0-73.6-9.6-131.2-86.4-131.2-185.6S166.4 64 227.2 64h582.4c54.4 0 118.4 96 118.4 198.4 0 89.6-35.2 166.4-99.2 185.6-28.8 9.6-67.2 12.8-92.8 6.4-6.4 169.6-99.2 249.6-204.8 249.6z m163.2-252.8l38.4-41.6c6.4-6.4 6.4-16 0-22.4l-256-249.6c-12.8-12.8-32-16-44.8-3.2l-147.2 140.8c-6.4 6.4-6.4 12.8-3.2 19.2l3.2 3.2 38.4 38.4c6.4 6.4 16 6.4 22.4 0l108.8-105.6L672 448c6.4 9.6 16 9.6 22.4 3.2z"  horiz-adv-x="1024" />
      
      <glyph glyph-name="sdoc-file" unicode="&#58895;" d="M460.8 723.2H112c-16 0-35.2-12.8-35.2-35.2v-601.6c0-19.2 16-35.2 35.2-35.2h803.2c16 0 35.2 19.2 35.2 35.2V576c0 19.2-16 35.2-35.2 35.2H588.8c-12.8 0-16 6.4-22.4 12.8l-105.6 99.2z m137.6-38.4h313.6c57.6 0 112-48 112-115.2v-489.6c0-60.8-48-115.2-112-115.2h-800C51.2-32 0 16 0 83.2V684.8C0 745.6 48 800 112 800h361.6c12.8 0 16-6.4 22.4-12.8l102.4-102.4z"  horiz-adv-x="1024" />
      
      <glyph glyph-name="sdoc-header6" unicode="&#58894;" d="M96 896v-400h448V896h96v-960h-96V400H96V-64H0V896h96zM787.2 115.2c12.8 16 28.8 28.8 44.8 35.2s35.2 12.8 54.4 12.8c19.2 0 38.4-3.2 54.4-9.6 16-6.4 32-16 41.6-28.8 16-16 25.6-28.8 32-48s9.6-35.2 9.6-54.4c0-28.8-6.4-54.4-19.2-76.8s-32-41.6-54.4-54.4c-25.6-12.8-51.2-19.2-80-19.2-35.2 0-64 9.6-89.6 25.6S736-64 723.2-32s-19.2 70.4-19.2 118.4c0 38.4 3.2 70.4 12.8 102.4s19.2 51.2 32 73.6 32 35.2 54.4 44.8 44.8 12.8 73.6 12.8c25.6 0 48-6.4 70.4-16s32-22.4 44.8-35.2c9.6-16 16-28.8 16-41.6 0-9.6-3.2-16-9.6-22.4s-16-12.8-25.6-12.8c-9.6 0-16 3.2-25.6 9.6-6.4 6.4-12.8 12.8-16 22.4-3.2 9.6-12.8 19.2-22.4 28.8-9.6 6.4-22.4 9.6-35.2 9.6-9.6 0-22.4-3.2-32-9.6-9.6-6.4-19.2-12.8-25.6-22.4-16-22.4-25.6-60.8-28.8-115.2z m83.2-185.6c19.2 0 38.4 9.6 51.2 25.6s19.2 38.4 19.2 64c0 19.2-3.2 35.2-9.6 48-3.2 12.8-12.8 22.4-25.6 28.8-9.6 6.4-22.4 9.6-35.2 9.6-12.8 0-25.6-3.2-35.2-9.6-12.8-6.4-22.4-16-28.8-28.8-6.4-9.6-9.6-25.6-9.6-41.6 0-25.6 6.4-48 22.4-67.2 12.8-19.2 28.8-28.8 51.2-28.8z"  horiz-adv-x="1024" />
      
      <glyph glyph-name="sdoc-more-vertical-right" unicode="&#58891;" d="M320.182095 704.370743c54.294956 0 95.814629 41.519672 95.814629 95.814628s-41.519672 95.814629-95.814629 95.814629-95.814629-41.519672-95.814628-95.814629 41.519672-95.814629 95.814628-95.814628z m0-415.196724c54.294956 0 95.814629 41.519672 95.814629 95.814628s-41.519672 95.814629-95.814629 95.814629-95.814629-41.519672-95.814628-95.814629 41.519672-95.814629 95.814628-95.814628z m0-415.196724c54.294956 0 95.814629 41.519672 95.814629 95.814628s-41.519672 95.814629-95.814629 95.814629-95.814629-41.519672-95.814628-95.814629 41.519672-95.814629 95.814628-95.814628zM713.022073 857.674149l293.831528-424.778187c19.162926-28.744389 19.162926-76.651703 0-105.396092L713.022073-94.084496c-19.162926-28.744389-60.682598-44.713493-89.426987-25.550568-28.744389 22.356747-38.325851 63.876419-19.162926 92.620808l293.831528 405.615261-287.443886 405.615262c-25.550568 35.13203-25.550568 73.457882 12.775284 95.814628s67.07024 6.387642 89.426987-22.356746z"  horiz-adv-x="1024" />
      
      <glyph glyph-name="sdoc-more-vertical" unicode="&#58892;" d="M320 704c54.4 0 96 41.6 96 96s-41.6 96-96 96-96-41.6-96-96 41.6-96 96-96z m0-416c54.4 0 96 41.6 96 96s-41.6 96-96 96-96-41.6-96-96 41.6-96 96-96z m0-416c54.4 0 96 41.6 96 96s-41.6 96-96 96-96-41.6-96-96 41.6-96 96-96zM704 704c54.4 0 96 41.6 96 96s-41.6 96-96 96-96-41.6-96-96 41.6-96 96-96z m0-416c54.4 0 96 41.6 96 96s-41.6 96-96 96-96-41.6-96-96 41.6-96 96-96z m0-416c54.4 0 96 41.6 96 96s-41.6 96-96 96-96-41.6-96-96 41.6-96 96-96z"  horiz-adv-x="1024" />
      
      <glyph glyph-name="sdoc-append" unicode="&#58893;" d="M80 432h864c25.6 0 48-22.4 48-48s-22.4-48-48-48h-864c-25.6 0-48 22.4-48 48s22.4 48 48 48zM560 800v-864c0-25.6-22.4-48-48-48s-48 22.4-48 48V800c0 25.6 22.4 48 48 48s48-22.4 48-48z"  horiz-adv-x="1024" />
      
      <glyph glyph-name="sdoc-quote1" unicode="&#58890;" d="M48 896C73.6 896 96 873.6 96 848v-928c0-25.6-22.4-48-48-48S0-105.6 0-80v928C0 873.6 22.4 896 48 896zM273.088 231.104c51.2 16 96 48 124.8 92.8 32 41.6 48 118.4 48 163.2-9.6-6.4-22.4-6.4-44.8-6.4-38.4 0-70.4 12.8-99.2 41.6-25.6 28.8-41.6 64-41.6 108.8s16 80 44.8 108.8c28.8 28.8 70.4 41.6 108.8 41.6 51.2 0 89.6-22.4 124.8-64 32-41.6 48-96 48-160 0-102.4-28.8-220.8-83.2-294.4-54.4-76.8-131.2-128-227.2-153.6l-3.2 121.6z m438.4 6.4c51.2 16 89.6 48 124.8 92.8 35.2 41.6 51.2 118.4 48 163.2-9.6-6.4-22.4-6.4-44.8-6.4-38.4 0-73.6 12.8-99.2 41.6-28.8 28.8-41.6 64-41.6 108.8s16 80 41.6 108.8c32 25.6 70.4 38.4 112 38.4 51.2 0 89.6-22.4 121.6-64s48-96 48-160c0-102.4-28.8-220.8-83.2-294.4-54.4-76.8-131.2-128-227.2-153.6v124.8z"  horiz-adv-x="1024" />
      
      <glyph glyph-name="sdoc-cut" unicode="&#58889;" d="M96 896c12.8 0 22.4-6.4 32-12.8l403.2-416c9.6-3.2 16-12.8 22.4-22.4l163.2-166.4c28.8 16 60.8 22.4 96 22.4 118.4 0 214.4-96 214.4-214.4S928-128 809.6-128s-214.4 96-214.4 214.4c0 51.2 19.2 99.2 48 137.6l-137.6 144-137.6-134.4c35.2-38.4 54.4-89.6 54.4-144 0-118.4-96-214.4-214.4-214.4S0-32 0 86.4s96 214.4 214.4 214.4c32 0 60.8-6.4 86.4-19.2l147.2 147.2L64 822.4C48 838.4 48 867.2 64 883.2c9.6 9.6 22.4 12.8 32 12.8z m118.4-681.6c-70.4 0-128-57.6-128-128s57.6-128 128-128 128 57.6 128 128-57.6 128-128 128z m595.2 0c-70.4 0-128-57.6-128-128s57.6-128 128-128 128 57.6 128 128-57.6 128-128 128z m160 668.8c16-16 16-41.6 0-60.8L672 524.8c-16-16-44.8-16-60.8 0s-16 44.8 0 60.8L908.8 883.2c16 16 41.6 16 60.8 0z"  horiz-adv-x="1027" />
      
      <glyph glyph-name="sdoc-header5" unicode="&#58884;" d="M96 896v-400h448V896h96v-960h-96V400H96V-64H0V896h96zM963.2 249.6h-147.2l-16-99.2c28.8 16 57.6 22.4 80 22.4 19.2 0 38.4-3.2 54.4-9.6s32-16 44.8-28.8c12.8-12.8 22.4-28.8 32-44.8 9.6-19.2 12.8-38.4 12.8-57.6 0-28.8-6.4-54.4-19.2-80-12.8-25.6-32-41.6-57.6-57.6s-57.6-22.4-89.6-22.4c-38.4 0-67.2 6.4-89.6 19.2-22.4 12.8-38.4 28.8-48 44.8s-16 35.2-16 48c0 6.4 3.2 16 9.6 22.4s16 9.6 25.6 9.6c16 0 28.8-9.6 38.4-28.8 9.6-19.2 19.2-32 32-41.6s28.8-16 48-16c16 0 28.8 3.2 41.6 12.8 12.8 9.6 22.4 19.2 28.8 32 6.4 12.8 9.6 28.8 9.6 48s-3.2 35.2-9.6 51.2c-6.4 12.8-16 22.4-28.8 28.8-12.8 9.6-25.6 12.8-38.4 12.8-19.2 0-32-3.2-38.4-6.4-9.6-6.4-19.2-12.8-32-22.4s-28.8-16-38.4-16c-9.6 0-19.2 3.2-25.6 9.6s-12.8 16-12.8 25.6c0 0 0 6.4 3.2 19.2l25.6 144c3.2 19.2 9.6 32 19.2 38.4s19.2 12.8 38.4 12.8h163.2c32 0 48-12.8 48-35.2 0-9.6-3.2-19.2-12.8-25.6-6.4-6.4-19.2-9.6-35.2-9.6z"  horiz-adv-x="1024" />
      
      <glyph glyph-name="sdoc-header2" unicode="&#58885;" d="M96 896v-400h448V896h96v-960h-96V400H96V-64H0V896h96zM812.8-57.6h163.2c16 0 28.8-3.2 38.4-9.6 9.6-6.4 12.8-16 12.8-25.6 0-9.6-3.2-19.2-9.6-25.6s-19.2-9.6-35.2-9.6h-230.4c-16 0-28.8 3.2-35.2 12.8s-12.8 19.2-12.8 28.8c0 6.4 3.2 16 9.6 28.8s12.8 22.4 19.2 28.8c25.6 28.8 51.2 51.2 73.6 73.6s38.4 32 48 38.4c16 12.8 28.8 22.4 41.6 35.2 12.8 12.8 19.2 22.4 25.6 35.2 6.4 12.8 9.6 25.6 9.6 38.4 0 12.8-3.2 25.6-9.6 35.2s-16 16-25.6 22.4c-12.8 6.4-22.4 9.6-35.2 9.6-28.8 0-51.2-12.8-64-35.2-3.2-3.2-6.4-12.8-12.8-25.6-3.2-12.8-9.6-22.4-16-32-6.4-6.4-16-9.6-25.6-9.6-12.8 0-19.2 3.2-25.6 9.6s-12.8 16-12.8 28.8 3.2 28.8 9.6 44.8 16 28.8 28.8 41.6 28.8 22.4 48 28.8 44.8 9.6 70.4 9.6c32 0 57.6-6.4 80-16 16-6.4 28.8-16 38.4-25.6s19.2-25.6 25.6-38.4 12.8-32 12.8-48c0-25.6-6.4-48-19.2-67.2-12.8-22.4-28.8-38.4-41.6-48-12.8-12.8-35.2-32-67.2-54.4s-51.2-44.8-64-57.6c-3.2-6.4-9.6-12.8-12.8-22.4z"  horiz-adv-x="1027" />
      
      <glyph glyph-name="sdoc-header3" unicode="&#58886;" d="M96 896v-400h448V896h96v-960h-96V400H96V-64H0V896h96zM848 144c19.2 0 35.2 6.4 48 16 12.8 9.6 19.2 25.6 19.2 44.8 0 16-6.4 28.8-16 38.4s-22.4 19.2-41.6 19.2c-12.8 0-22.4-3.2-32-6.4s-16-6.4-19.2-12.8-9.6-12.8-12.8-19.2l-12.8-25.6-9.6-9.6c-6.4-3.2-12.8-3.2-19.2-3.2-9.6 0-16 3.2-25.6 9.6-6.4 6.4-9.6 12.8-9.6 25.6 0 9.6 3.2 22.4 9.6 32s16 22.4 28.8 32 28.8 19.2 48 25.6 38.4 9.6 64 9.6c19.2 0 38.4-3.2 54.4-6.4s32-12.8 44.8-22.4c9.6-12.8 19.2-22.4 25.6-35.2s9.6-28.8 9.6-41.6c0-22.4-3.2-38.4-12.8-54.4s-22.4-28.8-38.4-41.6c16-6.4 28.8-16 41.6-28.8 9.6-9.6 19.2-22.4 25.6-35.2 3.2-12.8 6.4-25.6 6.4-41.6 0-19.2-3.2-35.2-12.8-51.2-6.4-16-19.2-32-32-44.8-16-12.8-32-22.4-51.2-32-22.4-9.6-44.8-12.8-70.4-12.8-25.6 0-48 3.2-67.2 12.8s-35.2 19.2-48 32c-12.8 12.8-22.4 25.6-28.8 38.4-6.4 16-9.6 25.6-9.6 35.2 0 12.8 3.2 22.4 12.8 28.8s16 9.6 28.8 9.6c6.4 0 12.8-3.2 16-6.4 6.4 0 9.6-6.4 9.6-9.6 9.6-28.8 22.4-48 35.2-60.8s28.8-19.2 51.2-19.2c12.8 0 25.6 3.2 38.4 9.6s22.4 12.8 32 25.6 12.8 25.6 12.8 41.6c-3.2 22.4-9.6 41.6-22.4 54.4-12.8 12.8-32 19.2-54.4 19.2h-35.2c-12.8-3.2-22.4 0-28.8 6.4s-9.6 12.8-9.6 22.4c0 9.6 3.2 16 12.8 22.4s19.2 9.6 32 9.6h12.8z"  horiz-adv-x="1024" />
      
      <glyph glyph-name="sdoc-header1" unicode="&#58887;" d="M96 896v-400h448V896h96v-960h-96V400H96V-64H0V896h96zM842.688-80V192c-51.2-38.4-86.4-57.6-102.4-57.6-9.6 0-16 3.2-22.4 9.6-6.4 6.4-9.6 12.8-9.6 22.4 0 9.6 3.2 19.2 9.6 22.4 6.4 3.2 19.2 9.6 35.2 19.2 25.6 12.8 44.8 22.4 57.6 35.2s25.6 28.8 38.4 41.6c9.6 16 16 25.6 19.2 28.8s9.6 6.4 19.2 6.4c12.8 0 19.2-3.2 25.6-12.8 6.4-6.4 9.6-19.2 9.6-32v-342.4c0-41.6-12.8-60.8-41.6-60.8-12.8 0-22.4 3.2-28.8 12.8s-9.6 19.2-9.6 35.2z"  horiz-adv-x="1024" />
      
      <glyph glyph-name="sdoc-header4" unicode="&#58888;" d="M96 896v-400h448V896h96v-960h-96V400H96V-64H0V896h96zM896-83.2v54.4h-140.8c-16 0-32 3.2-38.4 12.8-9.6 9.6-12.8 22.4-12.8 35.2 0 3.2 0 9.6 3.2 12.8 0 3.2 3.2 6.4 6.4 12.8 3.2 3.2 6.4 9.6 9.6 12.8s3.2 6.4 6.4 12.8l147.2 211.2c9.6 12.8 16 22.4 22.4 28.8s16 9.6 22.4 9.6c28.8 0 41.6-16 41.6-51.2v-230.4h12.8c16 0 25.6-3.2 35.2-6.4 9.6-3.2 12.8-12.8 12.8-25.6s-3.2-19.2-9.6-25.6c-6.4-6.4-16-6.4-32-6.4h-16v-54.4c0-16-3.2-25.6-9.6-35.2-6.4-9.6-16-12.8-25.6-12.8-9.6 0-19.2 3.2-25.6 12.8s-9.6 16-9.6 32z m-118.4 121.6H896v172.8l-118.4-172.8z"  horiz-adv-x="1024" />
      
      <glyph glyph-name="sdoc-text" unicode="&#58883;" d="M112 896h800c25.6 0 48-22.4 48-48S937.6 800 912 800h-800C86.4 800 64 822.4 64 848S86.4 896 112 896zM560 896v-976c0-25.6-22.4-48-48-48s-48 22.4-48 48V896h96z"  horiz-adv-x="1024" />
      
      <glyph glyph-name="sdoc-close1" unicode="&#58951;" d="M512 454.4L102.4 864 32 793.6 441.6 384 32-25.6 102.4-96 512 313.6 921.6-96l70.4 70.4L582.4 384 992 793.6 921.6 864z"  horiz-adv-x="1024" />
      
      <glyph glyph-name="sdoc-rename" unicode="&#58912;" d="M796.8 873.6L928 742.4c32-32 32-83.2 0-112L336 32l-265.6-19.2 16 262.4L681.6 873.6c28.8 28.8 86.4 28.8 115.2 0z m-204.8-227.2L182.4 233.6l-6.4-115.2 118.4 9.6L704 537.6l-112 108.8z m147.2 147.2l-80-80L768 604.8l80 80-108.8 108.8zM976-128h-928C22.4-128 0-105.6 0-80S22.4-32 48-32h928c25.6 0 48-22.4 48-48s-22.4-48-48-48z"  horiz-adv-x="1024" />
      
      <glyph glyph-name="sdoc-align-center" unicode="&#58926;" d="M800 832v-96H224V832h576z m224-352v96H0v-96h1024z m0-544v96H0v-96h1024zM224 288v-96h576v96H224z"  horiz-adv-x="1024" />
      
      <glyph glyph-name="sdoc-table" unicode="&#58947;" d="M992 864c19.2 0 32-12.8 32-32v-896c0-19.2-12.8-32-32-32H32c-19.2 0-32 12.8-32 32V832c0 19.2 12.8 32 32 32h960zM96 192v-192h256v192H96z m832 0H448v-192h480v192z m0 288H448v-192h480v192z m0 288H448v-192h480V768zM352 768H96v-192h256V768zM96 288h256v192H96v-192z"  horiz-adv-x="1024" />
      
      <glyph glyph-name="sdoc-list-ol" unicode="&#58948;" d="M288 432v-96h736v96H288zM288 768v-96h736V768H288z m0-672v-96h736v96H288zM144 608c9.6 0 16 6.4 16 16v25.6c0 9.6-6.4 16-16 16h-25.6V816c0 9.6-6.4 16-16 16H64c-6.4 0-12.8-3.2-16-9.6l-12.8-25.6c-3.2-3.2-3.2-9.6 0-12.8 3.2-3.2 6.4-6.4 12.8-6.4H64v-112H32c-6.4-3.2-12.8-9.6-12.8-16v-28.8c0-6.4 6.4-12.8 12.8-12.8h112zM25.6 272h115.2c9.6 0 16 6.4 16 16v25.6c0 9.6-6.4 16-16 16h-64c6.4 19.2 83.2 32 83.2 99.2 0 51.2-44.8 67.2-76.8 67.2-35.2 0-60.8-19.2-67.2-32-9.6-12.8-6.4-22.4 3.2-28.8l12.8-12.8c9.6-9.6 19.2-3.2 25.6 3.2 3.2 3.2 9.6 6.4 16 6.4s16-3.2 16-16c0-22.4-89.6-38.4-89.6-118.4v-6.4c6.4-12.8 16-19.2 25.6-19.2z m80-198.4l28.8 35.2c6.4 6.4 9.6 16 9.6 22.4v6.4c0 12.8-6.4 22.4-22.4 22.4h-96c-9.6 0-16-6.4-16-16v-28.8c0-9.6 6.4-16 16-16H64c-6.4-6.4-12.8-16-19.2-22.4l-9.6-12.8c-3.2-6.4-6.4-16-3.2-22.4l3.2-3.2c6.4-9.6 12.8-12.8 22.4-12.8H64c19.2 0 25.6-3.2 25.6-16 0-9.6-6.4-16-22.4-16-9.6 0-19.2 3.2-25.6 6.4-12.8 6.4-22.4 6.4-25.6-6.4l-9.6-16c-6.4-12.8-6.4-22.4 6.4-25.6 9.6-9.6 32-19.2 60.8-19.2 60.8 0 83.2 38.4 83.2 76.8 0 28.8-19.2 54.4-51.2 64z"  horiz-adv-x="1024" />
      
      <glyph glyph-name="sdoc-strikethrough" unicode="&#58949;" d="M810.267913 321.794393c9.570093-12.760125 19.140187-25.520249 22.330218-31.900312 15.950156-31.900312 28.71028-66.990654 28.71028-111.65109s-9.570093-92.510903-25.520249-130.791278c-15.950156-38.280374-41.470405-70.180685-73.370717-95.700934-63.800623-51.040498-156.311526-79.750779-264.772585-79.750779-102.080997 0-188.211838 25.520249-248.82243 73.370717-51.040498 41.470405-82.94081 95.700935-89.320872 162.691588v6.380063c0 3.190031 3.190031 9.570093 6.380062 9.570093h105.271028c3.190031 0 6.380062-3.190031 6.380062-6.380062 0-6.380062 3.190031-9.570093 3.190031-12.760125 15.950156-44.660436 41.470405-76.560748 79.750779-102.080997 41.470405-22.330218 89.320872-35.090343 146.741433-35.090342 73.370717 0 133.981308 19.140187 175.451714 54.230529 38.280374 31.900312 79.750779 86.130841 79.750778 140.361371 0 57.420561-47.850467 114.841121-95.700934 143.551402-12.760125 6.380062-28.71028 12.760125-44.660436 15.950156h188.211838zM513.595016 896c102.080997 0 185.021807-28.71028 242.442367-86.130841 41.470405-38.280374 66.990654-92.510903 76.560748-149.931464 0-3.190031 0-9.570093 3.190031-22.330218 0-3.190031-3.190031-6.380062-6.380062-6.380063h-95.700935c-3.190031 0-6.380062 3.190031-6.380062 6.380063-3.190031 9.570093-3.190031 19.140187-6.380063 25.520249-9.570093 28.71028-22.330218 54.23053-44.660436 76.560748C638.006231 777.968847 580.58567 800.299065 507.214953 800.299065c-63.800623 0-118.031153-15.950156-156.311526-47.850467-38.280374-31.900312-60.610592-76.560748-60.610592-130.791277 0-54.23053 22.330218-95.700935 70.180685-124.411215 31.900312-19.140187 73.370717-35.090343 143.551402-47.850467H236.062305c-12.760125 12.760125-25.520249 28.71028-31.900311 41.470405l-3.190031 9.570093c-15.950156 28.71028-22.330218 63.800623-22.330218 105.271028 0 47.850467 9.570093 89.320872 25.520249 127.601246C216.922118 768.398754 242.442368 800.299065 274.342679 825.819315 334.953271 870.479751 417.894081 896 513.595016 896zM0 449.395639h1020.809969v-95.700935H0z"  horiz-adv-x="1024" />
      
      <glyph glyph-name="sdoc-link" unicode="&#58952;" d="M614.4 489.6l35.2-35.2-67.2-67.2-35.2 35.2c-67.2 67.2-176 70.4-246.4 9.6l-6.4-6.4-147.2-147.2c-35.2-35.2-54.4-80-54.4-128s19.2-92.8 54.4-128l3.2-3.2c35.2-35.2 80-54.4 128-54.4s92.8 19.2 128 54.4l73.6 73.6 6.4 6.4 28.8 35.2 73.6-57.6-28.8-35.2-12.8-12.8-73.6-73.6c-51.2-51.2-121.6-80-192-80-73.6 0-144 28.8-195.2 80l-3.2 3.2C28.8 6.4 0 76.8 0 150.4s28.8 144 80 195.2l147.2 147.2c3.2 3.2 9.6 6.4 12.8 12.8 108.8 92.8 272 86.4 374.4-16zM745.6 896c73.6 0 144-28.8 195.2-80l3.2-3.2C995.2 761.6 1024 691.2 1024 617.6s-28.8-144-80-195.2l-147.2-147.2c-3.2-3.2-9.6-6.4-12.8-12.8-51.2-44.8-115.2-67.2-182.4-67.2-73.6 0-140.8 28.8-192 80l-35.2 35.2 67.2 67.2 35.2-35.2c67.2-67.2 176-70.4 246.4-9.6l6.4 6.4 3.2 3.2 147.2 147.2c35.2 35.2 54.4 80 54.4 128s-19.2 92.8-54.4 128l-3.2 3.2c-35.2 35.2-80 54.4-128 54.4s-92.8-19.2-128-54.4l-73.6-73.6-6.4-6.4-28.8-35.2-73.6 57.6 28.8 35.2 12.8 12.8 73.6 73.6C604.8 867.2 675.2 896 745.6 896z"  horiz-adv-x="1024" />
      
      <glyph glyph-name="sdoc-list-ul" unicode="&#58953;" d="M0 48C0 3.2 38.4-32 80-32S160 6.4 160 48 124.8 128 80 128C38.4 128 0 92.8 0 48zM288 96v-96h736v96H288z m-288 288c0-44.8 38.4-80 80-80S160 342.4 160 384s-35.2 80-80 80C38.4 464 0 428.8 0 384z m288 48v-96h736v96H288z m-288 288C0 675.2 38.4 640 80 640S160 678.4 160 720 124.8 800 80 800C38.4 800 0 764.8 0 720zM288 768v-96h736V768H288z"  horiz-adv-x="1024" />
      
      <glyph glyph-name="sdoc-auto-linefeed" unicode="&#58954;" d="M0 864h1024v-96H0V864z m1024-288v-288c0-172.8-134.4-297.6-307.2-304H704v-67.2c0-19.2-12.8-32-32-32-9.6 0-16 3.2-22.4 9.6L512 32l137.6 137.6c12.8 12.8 32 12.8 44.8 0 6.4-6.4 9.6-12.8 9.6-22.4v-67.2c102.4 0 217.6 96 224 195.2V576h96zM416 96v-96H0v96h416z m352 384v-96H0v96h768z"  horiz-adv-x="1024" />
      
      <glyph glyph-name="sdoc-delete-table" unicode="&#58955;" d="M992 864c19.2 0 32-12.8 32-32v-464c-28.8 28.8-60.8 54.4-96 73.6V480H448v-192h6.4c-25.6-48-38.4-102.4-38.4-160 0-86.4 28.8-163.2 80-224H32c-19.2 0-32 12.8-32 32V832c0 19.2 12.8 32 32 32h960zM352 192H96v-192h256v192z m0 288H96v-192h256v192z m576 288H448v-192h480V768zM352 768H96v-192h256V768zM752 416c150.4 0 272-121.6 272-272S902.4-128 752-128 480-6.4 480 144s121.6 272 272 272z m128-224h-256c-25.6 0-48-22.4-48-48s22.4-48 48-48h256c25.6 0 48 22.4 48 48s-22.4 48-48 48z"  horiz-adv-x="1024" />
      
      <glyph glyph-name="sdoc-image" unicode="&#58956;" d="M992 832c19.2 0 32-12.8 32-32v-832c0-19.2-12.8-32-32-32H32c-19.2 0-32 12.8-32 32V800c0 19.2 12.8 32 32 32h960z m-64-96H96v-704h832V736zM272 640C227.2 640 192 604.8 192 560S227.2 480 272 480s80 35.2 80 80S316.8 640 272 640zM192 128h640v211.2l-147.2 166.4c-6.4 9.6-22.4 9.6-28.8 0l-224-256-92.8 105.6c-6.4 9.6-22.4 9.6-28.8 0L192 217.6V128z"  horiz-adv-x="1024" />
      
      <glyph glyph-name="sdoc-align-right" unicode="&#58957;" d="M384 832v-96h640V832H384z m640-256v-96H0v96h1024zM0-64v96h1024v-96H0z m1024 352v-96H384v96h640z"  horiz-adv-x="1024" />
      
      <glyph glyph-name="sdoc-text-link" unicode="&#58958;" d="M0 800h73.6v-579.2H0V800z m240-76.8c9.6-9.6 12.8-22.4 12.8-35.2 0-12.8-3.2-25.6-12.8-35.2-9.6-9.6-22.4-12.8-35.2-12.8-12.8 0-25.6 3.2-35.2 12.8-9.6 9.6-12.8 22.4-12.8 35.2 0 12.8 3.2 25.6 12.8 35.2 9.6 9.6 22.4 12.8 35.2 12.8 12.8 0 25.6-3.2 35.2-12.8z m3.2-128v-374.4H169.6V595.2h73.6z m262.4 9.6c70.4 0 124.8-48 124.8-140.8v-243.2h-73.6v236.8c0 57.6-25.6 83.2-73.6 83.2-19.2 0-38.4-6.4-51.2-19.2-16-16-19.2-35.2-22.4-64v-240h-73.6V608h73.6v-38.4c22.4 22.4 44.8 35.2 96 35.2zM780.8 800l3.2-320L928 608h96l-160-153.6 160-233.6h-92.8l-115.2 185.6-32-32v-153.6h-73.6V800h70.4zM1024-32H0v96h1024z"  horiz-adv-x="1024" />
      
      <glyph glyph-name="sdoc-check-square" unicode="&#58916;" d="M893.208723-29.109034H127.601246c-19.140187 0-31.900312 12.760125-31.900311 31.900311V768.398754c0 19.140187 12.760125 31.900312 31.900311 31.900311h542.305296V896H114.841121C51.040498 896 0 844.959502 0 781.158879v-794.317758c0-63.800623 51.040498-114.841121 114.841121-114.841121h794.317758c63.800623 0 114.841121 51.040498 114.841121 114.841121V449.395639h-95.700935v-446.604362c-3.190031-19.140187-15.950156-31.900312-35.090342-31.900311zM277.53271 494.056075l-79.750779-79.750779 255.202493-255.202492L1020.809969 726.928349l-79.750779 79.750779-488.074766-488.074767-175.451714 175.451714z"  horiz-adv-x="1027" />
      
      <glyph glyph-name="sdoc-italic" unicode="&#58917;" d="M864 864v-32c0-16-16-32-32-32h-160l-224-832h160c16 0 32-12.8 32-32v-32c0-16-12.8-32-32-32H192c-16 0-32 12.8-32 32v32c0 16 12.8 32 32 32h160l224 832h-160c-16 0-32 16-32 32V864c0 16 16 32 32 32h416c19.2 0 32-16 32-32z"  horiz-adv-x="1024" />
      
      <glyph glyph-name="sdoc-copy" unicode="&#58919;" d="M947.2 896H332.8C291.2 896 256 860.8 256 819.2V736h96V784c0 9.6 6.4 16 16 16h544c9.6 0 16-6.4 16-16v-544c0-9.6-6.4-16-16-16H864v-96h83.2c41.6 0 76.8 35.2 76.8 76.8V819.2C1024 860.8 988.8 896 947.2 896zM755.2 704H76.8C35.2 704 0 668.8 0 627.2v-678.4C0-92.8 35.2-128 76.8-128h678.4c41.6 0 76.8 35.2 76.8 76.8V627.2C832 668.8 796.8 704 755.2 704zM736 592v-608c0-9.6-6.4-16-16-16h-608c-9.6 0-16 6.4-16 16v608c0 9.6 6.4 16 16 16h608c9.6 0 16-6.4 16-16z"  horiz-adv-x="1024" />
      
      <glyph glyph-name="sdoc-caret-up" unicode="&#58927;" d="M544 560l214.4-268.8c25.6-32 6.4-83.2-32-83.2H297.6c-35.2 0-57.6 48-32 83.2l214.4 268.8c16 22.4 48 22.4 64 0z"  horiz-adv-x="1024" />
      
      <glyph glyph-name="sdoc-increase-font-size" unicode="&#58928;" d="M457.6 896L800-128h-108.8l-92.8 288H198.4l-92.8-288H0L342.4 896h115.2z m-54.4-124.8h-6.4l-166.4-512h336l-163.2 512zM870.4 864v-153.6H1024v-76.8h-153.6V480h-76.8V633.6H640V710.4h153.6V864h76.8z"  horiz-adv-x="1024" />
      
      <glyph glyph-name="sdoc-subscripts" unicode="&#58930;" d="M995.2 233.6c19.2-19.2 28.8-41.6 28.8-70.4 0-28.8-9.6-51.2-32-73.6-9.6-12.8-28.8-25.6-54.4-44.8l-9.6-3.2c-32-22.4-51.2-38.4-57.6-57.6H1024v-44.8h-220.8c0 32 9.6 60.8 32 83.2 9.6 12.8 32 28.8 60.8 51.2l12.8 9.6c19.2 12.8 35.2 25.6 44.8 35.2 12.8 16 22.4 32 22.4 51.2 0 16-6.4 28.8-12.8 38.4-9.6 9.6-22.4 12.8-41.6 12.8-19.2 0-35.2-6.4-44.8-19.2-9.6-12.8-16-32-16-57.6h-51.2c0 35.2 9.6 64 32 86.4 22.4 22.4 48 35.2 83.2 35.2 25.6-3.2 48-12.8 70.4-32z m-243.2 608c22.4-16 25.6-48 9.6-67.2L454.4 384l304-390.4c16-19.2 12.8-48-3.2-64l-3.2-3.2c-22.4-16-51.2-12.8-67.2 9.6l-291.2 371.2-291.2-374.4c-16-22.4-48-25.6-67.2-9.6-22.4 16-25.6 48-9.6 67.2L332.8 384 25.6 774.4c-12.8 19.2-12.8 48 6.4 64l3.2 3.2c22.4 16 51.2 12.8 67.2-9.6l291.2-371.2L684.8 832c16 22.4 44.8 25.6 67.2 9.6z"  horiz-adv-x="1024" />
      
      <glyph glyph-name="sdoc-redo" unicode="&#58931;" d="M704 416l320 208L704 832v-160H352C156.8 672 0 515.2 0 320s156.8-352 352-352h544v96H352c-140.8 0-256 115.2-256 256s115.2 256 256 256h352v-160z"  horiz-adv-x="1024" />
      
      <glyph glyph-name="sdoc-more" unicode="&#58932;" d="M835.2 387.2c0-54.4 41.6-96 96-96s96 41.6 96 96-41.6 96-96 96c-51.2 0-96-41.6-96-96z m-416 0c0-54.4 41.6-96 96-96s96 41.6 96 96-41.6 96-96 96c-51.2 0-96-41.6-96-96z m-416 0c0-54.4 41.6-96 96-96s96 41.6 96 96-41.6 96-96 96c-51.2 0-96-41.6-96-96z"  horiz-adv-x="1027" />
      
      <glyph glyph-name="sdoc-column" unicode="&#58897;" d="M480 896v-288H192V896h288z m352 0v-288h-288V896h288zM384 800H288v-96h96V800z m352 0h-96v-96h96V800z m-256-272v-288H192v288h288z m352 0v-288h-288v288h288z m-448-96H288v-96h96v96z m352 0h-96v-96h96v96zM480 160v-288H192v288h288z m352 0v-288h-288v288h288z m-448-96H288v-96h96v96z m352 0h-96v-96h96v96z"  horiz-adv-x="1024" />
      
      <glyph glyph-name="sdoc-insert" unicode="&#58934;" d="M512 896c281.6 0 512-230.4 512-512s-230.4-512-512-512S0 102.4 0 384 230.4 896 512 896z m0-96C281.6 800 96 614.4 96 384s185.6-416 416-416 416 185.6 416 416S742.4 800 512 800z m0-160c25.6 0 48-22.4 48-48v-160h160c25.6 0 48-22.4 48-48s-22.4-48-48-48h-160v-160c0-25.6-22.4-48-48-48s-48 22.4-48 48v160h-160c-25.6 0-48 22.4-48 48s22.4 48 48 48h160v160c0 25.6 22.4 48 48 48z"  horiz-adv-x="1024" />
      
      <glyph glyph-name="sdoc-delete" unicode="&#58935;" d="M672 470.4c0 6.4-3.2 9.6-9.6 9.6h-76.8c-6.4 0-9.6-3.2-9.6-9.6v-300.8c0-6.4 3.2-9.6 9.6-9.6h76.8c6.4 0 9.6 3.2 9.6 9.6v300.8z m-224 0c0 6.4-3.2 9.6-9.6 9.6h-76.8c-6.4 0-9.6-3.2-9.6-9.6v-300.8c0-6.4 3.2-9.6 9.6-9.6h76.8c6.4 0 9.6 3.2 9.6 9.6v300.8zM256 736V896h512v-160h240c9.6 0 16-6.4 16-16v-64c0-9.6-6.4-16-16-16H896v-736c0-19.2-12.8-32-32-32H160c-19.2 0-32 12.8-32 32V640H16C6.4 640 0 646.4 0 656v64c0 9.6 6.4 16 16 16H256z m96 64v-64h320V800H352zM224 640v-672h576V640H224z"  horiz-adv-x="1024" />
      
      <glyph glyph-name="sdoc-bg-color" unicode="&#58936;" d="M919.2-73.6c60.8 0 105.6 48 105.6 105.6 0 38.4-35.2 124.8-105.6 249.6-70.4-128-105.6-211.2-105.6-249.6-3.2-60.8 44.8-105.6 105.6-105.6zM519.2 761.6l361.6-355.2c35.2-35.2 35.2-92.8 0-128L519.2-80c-35.2-35.2-92.8-35.2-131.2 0L26.4 275.2c-35.2 35.2-35.2 92.8 0 128L362.4 736l-19.2 19.2c-25.6 22.4-25.6 64 0 89.6s64 22.4 89.6 0l86.4-83.2zM148 358.4H768.8l-310.4 291.2c0-3.2-310.4-291.2-310.4-291.2z"  horiz-adv-x="1024" />
      
      <glyph glyph-name="sdoc-align-left" unicode="&#58937;" d="M640 832v-96H0V832h640zM0 576v-96h1024v96H0z m1024-640v96H0v-96h1024zM0 288v-96h640v96H0z"  horiz-adv-x="1024" />
      
      <glyph glyph-name="sdoc-underline" unicode="&#58938;" d="M0-32h1024v-96H0zM256 384c0-124.8 99.2-224 224-224h64c124.8 0 224 99.2 224 224V896h96v-544c0-160-128-288-288-288h-128c-160 0-288 128-288 288V896h96v-512z"  horiz-adv-x="1024" />
      
      <glyph glyph-name="sdoc-row" unicode="&#58940;" d="M1024 416h-288V704h288v-288z m0-352h-288v288h288v-288z m-96 448V608h-96v-96h96z m0-352v96h-96v-96h96z m-272 256h-288V704h288v-288z m0-352h-288v288h288v-288z m-96 448V608h-96v-96h96z m0-352v96h-96v-96h96zM288 416H0V704h288v-288z m0-352H0v288h288v-288zM192 512V608H96v-96h96z m0-352v96H96v-96h96z"  horiz-adv-x="1024" />
      
      <glyph glyph-name="sdoc-highlight-color" unicode="&#58900;" d="M1017.639752 539.826087L651.925466-93.018634l-149.465839 85.863354-66.782608-117.664596H19.080745L190.807453 174.111801 22.26087 272.695652 381.614907 896 1017.639752 539.826087zM143.10559 304.496894l477.018634-273.490683 273.490683 473.838509L413.416149 775.15528 143.10559 304.496894z"  horiz-adv-x="1024" />
      
      <glyph glyph-name="sdoc-format-clear" unicode="&#58898;" d="M976 604.8L656 876.8c-28.8 25.6-73.6 25.6-96-6.4L51.2 297.6c-9.6-9.6-19.2-28.8-19.2-48s9.6-35.2 25.6-48L224 64h374.4l387.2 448c22.4 28.8 22.4 67.2-9.6 92.8zM272 160l-96 80c-6.4 6.4-9.6 9.6-9.6 19.2s0 19.2 6.4 25.6l259.2 288 272-240-160-172.8H272z m-214.4-192h908.8c35.2 0 57.6-22.4 57.6-48 0-28.8-25.6-48-57.6-48H57.6C22.4-128 0-105.6 0-80S25.6-32 57.6-32z"  horiz-adv-x="1024" />
      
      <glyph glyph-name="sdoc-drop-down" unicode="&#58901;" d="M544 224l214.4 268.8c25.6 32 6.4 83.2-32 83.2H297.6c-35.2 0-57.6-48-32-83.2L480 224c16-19.2 48-19.2 64 0z"  horiz-adv-x="1024" />
      
      <glyph glyph-name="sdoc-font-color" unicode="&#58902;" d="M992-128h-128l-80 256H256l-96-256H32L396.8 896h227.2L992-128zM544 800h-64L288 224h448L544 800z"  horiz-adv-x="1024" />
      
      <glyph glyph-name="sdoc-inline-link" unicode="&#58903;" d="M1024 64v-96H0v96h1024zM448 608v-448H0V608h448z m-96-96H96v-256h256v256z m672-80v-96H512v96h512zM1024 800v-96H0V800h1024z"  horiz-adv-x="1024" />
      
      <glyph glyph-name="sdoc-revoke" unicode="&#58906;" d="M320 416L0 624 320 832v-160h352c195.2 0 352-156.8 352-352s-156.8-352-352-352H128v96h544c140.8 0 256 115.2 256 256s-115.2 256-256 256H320v-160z"  horiz-adv-x="1024" />
      
      <glyph glyph-name="sdoc-quote" unicode="&#58907;" d="M48 896C73.6 896 96 873.6 96 848v-928c0-25.6-22.4-48-48-48S0-105.6 0-80v928C0 873.6 22.4 896 48 896zM273.088 231.104c51.2 16 96 48 124.8 92.8 32 41.6 48 118.4 48 163.2-9.6-6.4-22.4-6.4-44.8-6.4-38.4 0-70.4 12.8-99.2 41.6-25.6 28.8-41.6 64-41.6 108.8s16 80 44.8 108.8c28.8 28.8 70.4 41.6 108.8 41.6 51.2 0 89.6-22.4 124.8-64 32-41.6 48-96 48-160 0-102.4-28.8-220.8-83.2-294.4-54.4-76.8-131.2-128-227.2-153.6l-3.2 121.6z m438.4 6.4c51.2 16 89.6 48 124.8 92.8 35.2 41.6 51.2 118.4 48 163.2-9.6-6.4-22.4-6.4-44.8-6.4-38.4 0-73.6 12.8-99.2 41.6-28.8 28.8-41.6 64-41.6 108.8s16 80 41.6 108.8c32 25.6 70.4 38.4 112 38.4 51.2 0 89.6-22.4 121.6-64s48-96 48-160c0-102.4-28.8-220.8-83.2-294.4-54.4-76.8-131.2-128-227.2-153.6v124.8z"  horiz-adv-x="1024" />
      
      <glyph glyph-name="sdoc-bold" unicode="&#58909;" d="M224 448h336c96 0 176 83.2 176 176v19.2C736 736 656 800 560 800H224v-352zM128 828.8C128 867.2 156.8 896 195.2 896h371.2C707.2 896 832 780.8 832 640v-16c0-70.4-44.8-144-96-192 112-38.4 195.2-140.8 195.2-265.6v-6.4c0-156.8-128-288-288-288h-448C160-128 128-96 128-57.6V828.8zM224-32h400c112 0 208 70.4 208 185.6V160c0 112-96 192-208 192H224v-384z"  horiz-adv-x="1024" />
      
      <glyph glyph-name="sdoc-unlink" unicode="&#58910;" d="M940.065574 812.065574c-111.912568 111.912568-294.17018 111.912568-406.082748 0l-127.900078-127.900078 67.147541-67.147541 127.900078 127.900078c70.345043 70.345043 191.850117 79.937549 271.787666 0s70.345043-201.442623 0-271.787666l-127.900078-127.900078 67.147541-67.147541 127.900078 127.900078c111.912568 108.715066 111.912568 290.972678 0 406.082748zM425.26776 25.480094c-70.345043-70.345043-191.850117-79.937549-271.787666 0s-70.345043 201.442623 0 271.787666l127.900078 127.900078-67.147541 67.147541-127.900078-127.900078c-111.912568-111.912568-111.912568-294.17018 0-406.082748s294.17018-111.912568 406.082748 0l127.900078 127.900078-67.147541 67.147541-127.900078-127.900078zM175.862607 786.485558c-3.197502 3.197502-9.592506 3.197502-15.987509 0L108.715066 735.325527c-3.197502-3.197502-3.197502-9.592506 0-15.98751l738.622951-738.622951c3.197502-3.197502 9.592506-3.197502 15.98751 0l51.160031 51.160032c3.197502 3.197502 3.197502 9.592506 0 15.987509L175.862607 786.485558z"  horiz-adv-x="1024" />
      
      <glyph glyph-name="sdoc-card-link" unicode="&#58911;" d="M1024 64v-96H0v96h1024z m0 544v-448H0V608h1024z m-96-96H96v-256h832v256z m96 288v-96H0V800h1024z"  horiz-adv-x="1024" />
      
      <glyph glyph-name="sdoc-code-block" unicode="&#58913;" d="M102.4 41.6v211.2c0 48-35.2 86.4-76.8 86.4H0v89.6h25.6c41.6 0 76.8 38.4 76.8 86.4V726.4C102.4 819.2 169.6 896 256 896h51.2v-115.2H256c-28.8 0-51.2-25.6-51.2-57.6v-233.6c0-48-28.8-92.8-70.4-108.8 41.6-16 70.4-57.6 70.4-108.8v-233.6c0-32 22.4-57.6 51.2-57.6h51.2V-128H256c-86.4 0-153.6 76.8-153.6 169.6z m819.2 211.2v-211.2c0-92.8-67.2-169.6-153.6-169.6h-51.2v115.2H768c28.8 0 51.2 25.6 51.2 57.6v233.6c0 48 28.8 92.8 70.4 108.8-41.6 16-70.4 57.6-70.4 108.8V726.4c0 32-22.4 57.6-51.2 57.6h-51.2V896H768c86.4 0 153.6-76.8 153.6-169.6v-211.2c0-48 35.2-86.4 76.8-86.4h25.6v-89.6h-25.6c-41.6 0-76.8-38.4-76.8-86.4z"  horiz-adv-x="1024" />
      
      <glyph glyph-name="sdoc-reduce-font-size" unicode="&#58915;" d="M457.6 896L800-128h-108.8l-92.8 288H198.4l-92.8-288H0L342.4 896h115.2z m-54.4-124.8h-6.4l-166.4-512h336l-163.2 512zM1024 710.4v-76.8H640V710.4h384z"  horiz-adv-x="1024" />
      
      <glyph glyph-name="sdoc-close" unicode="&#58896;" d="M512 454.4L102.4 864 32 793.6 441.6 384 32-25.6 102.4-96 512 313.6 921.6-96l70.4 70.4L582.4 384 992 793.6 921.6 864z"  horiz-adv-x="1024" />
      
      <glyph glyph-name="sdoc-superscripts" unicode="&#58899;" d="M995.2 809.6c19.2-16 28.8-38.4 28.8-67.2 0-28.8-9.6-51.2-32-73.6-9.6-12.8-28.8-25.6-54.4-44.8l-9.6-6.4c-32-22.4-51.2-38.4-57.6-57.6H1024v-44.8h-220.8c0 32 9.6 60.8 32 83.2 9.6 12.8 32 28.8 60.8 51.2l12.8 9.6c19.2 12.8 32 22.4 41.6 32 12.8 16 22.4 32 22.4 51.2 0 16-6.4 28.8-12.8 38.4-9.6 9.6-22.4 12.8-41.6 12.8-19.2 0-35.2-6.4-44.8-19.2-9.6-12.8-16-32-16-57.6h-51.2c0 35.2 9.6 64 32 86.4 22.4 22.4 48 35.2 83.2 35.2 28.8 0 51.2-9.6 73.6-28.8z m-243.2 32c22.4-16 25.6-48 9.6-67.2L454.4 384l304-390.4c16-19.2 12.8-48-3.2-64l-3.2-3.2c-22.4-16-51.2-12.8-67.2 9.6l-291.2 371.2-291.2-374.4c-16-22.4-48-25.6-67.2-9.6-22.4 16-25.6 48-9.6 67.2L332.8 384 25.6 774.4c-12.8 19.2-12.8 48 6.4 64l3.2 3.2c22.4 16 51.2 12.8 67.2-9.6l291.2-371.2L684.8 832c16 22.4 44.8 25.6 67.2 9.6z"  horiz-adv-x="1024" />
      
      <glyph glyph-name="sdoc-document" unicode="&#58950;" d="M640 864v-256h256v-672c0-19.2-12.8-32-32-32H160c-19.2 0-32 12.8-32 32V832c0 19.2 12.8 32 32 32h480z m192-352H192v-544h640V512z m-512-128h224c19.2 0 32-12.8 32-32s-12.8-32-32-32h-224c-19.2 0-32 12.8-32 32s12.8 32 32 32z m0-128h384c19.2 0 32-12.8 32-32s-12.8-32-32-32H320c-19.2 0-32 12.8-32 32s12.8 32 32 32z m384-128c19.2 0 32-12.8 32-32s-12.8-32-32-32H320c-19.2 0-32 12.8-32 32s12.8 32 32 32h384zM672 864l224-224h-224V864z"  horiz-adv-x="1024" />
      
      <glyph glyph-name="sdoc-confirm" unicode="&#58944;" d="M364.8 19.2L0 422.4l60.8 51.2 304-336L963.2 768 1024 716.8z"  horiz-adv-x="1024" />
      
      <glyph glyph-name="sdoc-more-options" unicode="&#58945;" d="M518.4 624C464 624 416 672 416 729.6S464 832 518.4 832s102.4-48 102.4-102.4-44.8-105.6-102.4-105.6z m0-342.4c-54.4 0-102.4 44.8-102.4 102.4s48 102.4 102.4 102.4 102.4-48 102.4-102.4-44.8-102.4-102.4-102.4z m0-345.6c-54.4 0-102.4 48-102.4 102.4s48 102.4 102.4 102.4 102.4-48 102.4-102.4S576-64 518.4-64z"  horiz-adv-x="1024" />
      
      <glyph glyph-name="sdoc-comments" unicode="&#58946;" d="M928 864c35.2 0 64-28.8 64-64v-672c0-35.2-28.8-64-64-64h-166.4l-16-121.6c-3.2-16-12.8-28.8-25.6-35.2-6.4-3.2-9.6-3.2-16-3.2-9.6 0-19.2 3.2-28.8 9.6L505.6 64H96c-35.2 0-64 28.8-64 64V800c0 35.2 28.8 64 64 64h832z m-64-96H160c-19.2 0-32-12.8-32-32v-544c0-19.2 12.8-32 32-32h361.6c9.6 0 22.4-3.2 28.8-9.6l124.8-102.4 9.6 76.8c3.2 22.4 22.4 38.4 41.6 35.2H864c19.2 0 32 12.8 32 32V736c0 19.2-12.8 32-32 32z m-112-352c9.6 0 16-6.4 16-16v-64c0-9.6-6.4-16-16-16h-480c-9.6 0-16 6.4-16 16v64c0 9.6 6.4 16 16 16h480z m0 224c9.6 0 16-6.4 16-16v-64c0-9.6-6.4-16-16-16h-480c-9.6 0-16 6.4-16 16v64c0 9.6 6.4 16 16 16h480z"  horiz-adv-x="1024" />
      
      <glyph glyph-name="sdoc-right-slide" unicode="&#58882;" d="M806.4 438.4L336 812.8c-54.4 44.8-144 9.6-144-54.4v-748.8c0-64 86.4-99.2 144-54.4l470.4 374.4c35.2 28.8 35.2 80 0 108.8z"  horiz-adv-x="1024" />
      
      <glyph glyph-name="sdoc-revise" unicode="&#58943;" d="M752 0c25.6 0 48-22.4 48-48s-22.4-48-48-48h-320c-25.6 0-48 22.4-48 48s22.4 48 48 48h320z m44.8 841.6L928 710.4c32-32 32-83.2 0-112L336 0l-265.6-19.2 16 262.4L681.6 841.6c28.8 28.8 86.4 28.8 115.2 0z m-204.8-227.2L182.4 201.6l-6.4-115.2 118.4 9.6L704 505.6l-112 108.8z m147.2 147.2l-80-80 108.8-108.8 80 80-108.8 108.8z"  horiz-adv-x="1024" />
      
      <glyph glyph-name="sdoc-starred" unicode="&#58941;" d="M995.2 412.8c54.4 54.4 25.6 153.6-51.2 163.2l-192 28.8c-28.8 3.2-57.6 25.6-70.4 54.4l-86.4 182.4C579.2 876.8 544 896 512 896s-67.2-19.2-83.2-54.4l-86.4-182.4c-12.8-28.8-38.4-48-70.4-51.2l-192-28.8C3.2 566.4-25.6 470.4 28.8 416l140.8-140.8c22.4-22.4 32-54.4 25.6-86.4l-32-201.6c-9.6-64 38.4-112 92.8-112 12.8 0 28.8 3.2 41.6 12.8l172.8 96c12.8 6.4 28.8 9.6 41.6 9.6 16 0 28.8-3.2 41.6-9.6l172.8-96c12.8-6.4 28.8-12.8 41.6-12.8 54.4 0 102.4 51.2 92.8 112l-32 201.6c-6.4 32 3.2 64 25.6 86.4l140.8 137.6z"  horiz-adv-x="1024" />
      
      <glyph glyph-name="sdoc-unstarred" unicode="&#58942;" d="M816 368c-60.8-60.8-86.4-150.4-73.6-236.8L768-32l-137.6 76.8c-35.2 19.2-76.8 32-118.4 32s-83.2-9.6-118.4-32L256-32l25.6 163.2c12.8 86.4-12.8 176-73.6 236.8L96 483.2l153.6 22.4c83.2 12.8 153.6 67.2 192 147.2L512 800l70.4-147.2c38.4-80 108.8-134.4 192-147.2l153.6-22.4-112-115.2z m179.2 44.8c54.4 54.4 25.6 153.6-51.2 163.2l-192 28.8c-28.8 3.2-57.6 25.6-70.4 54.4l-86.4 182.4C579.2 876.8 544 896 512 896s-67.2-19.2-83.2-54.4l-86.4-182.4c-12.8-28.8-38.4-48-70.4-51.2l-192-28.8C3.2 566.4-25.6 470.4 28.8 416l140.8-140.8c22.4-22.4 32-54.4 25.6-86.4l-32-201.6c-9.6-64 38.4-112 92.8-112 12.8 0 28.8 3.2 41.6 12.8l172.8 96c12.8 6.4 28.8 9.6 41.6 9.6 16 0 28.8-3.2 41.6-9.6l172.8-96c12.8-6.4 28.8-12.8 41.6-12.8 54.4 0 102.4 51.2 92.8 112l-32 201.6c-6.4 32 3.2 64 25.6 86.4l140.8 137.6z"  horiz-adv-x="1024" />
      
      <glyph glyph-name="sdoc-cancel" unicode="&#58929;" d="M512 441.6L214.4 742.4 185.6 768 128 710.4l25.6-28.8 300.8-297.6-300.8-297.6-25.6-28.8L185.6 0l28.8 25.6 297.6 300.8 297.6-300.8 28.8-25.6 57.6 57.6-25.6 28.8-300.8 297.6 300.8 297.6 25.6 28.8L838.4 768l-28.8-25.6-297.6-300.8z"  horiz-adv-x="1024" />
      
      <glyph glyph-name="sdoc-fullscreen" unicode="&#58933;" d="M390.4 832c19.2 0 41.6-16 41.6-41.6s-16-41.6-41.6-41.6H147.2v-243.2c0-19.2-16-41.6-41.6-41.6S64 483.2 64 505.6V790.4C64 816 80 832 105.6 832h284.8z m0-812.8c19.2 0 41.6-16 41.6-41.6s-19.2-41.6-41.6-41.6H99.2c-6.4 0-16 3.2-22.4 9.6-9.6 6.4-12.8 16-12.8 25.6v288c0 19.2 16 41.6 41.6 41.6s41.6-16 41.6-41.6v-185.6l204.8 204.8c16 16 41.6 16 57.6 0s16-41.6 0-57.6l-204.8-204.8 185.6 3.2zM960 793.6c0-3.2 0-3.2 0 0v-284.8c0-19.2-16-41.6-41.6-41.6s-41.6 16-41.6 41.6V694.4L672 489.6c-16-16-41.6-16-57.6 0s-16 41.6 0 57.6l208 198.4h-185.6c-19.2 0-41.6 16-41.6 41.6S611.2 832 633.6 832H928c16-3.2 28.8-12.8 32-32v-6.4z m0-534.4v-281.6c0-19.2-16-41.6-41.6-41.6h-284.8c-19.2 0-41.6 16-41.6 41.6s16 41.6 41.6 41.6h243.2v240c0 25.6 19.2 41.6 41.6 41.6 22.4 0 41.6-16 41.6-41.6z"  horiz-adv-x="1024" />
      
      <glyph glyph-name="sdoc-check-circle" unicode="&#58922;" d="M992 384c0-266.336-213.664-480-480-480S32 117.664 32 384 245.664 864 512 864s480-213.664 480-480zM456.256 130.08l356.16 356.128a29.92 29.92 0 0 1 0 43.328l-43.392 43.36a29.92 29.92 0 0 1-43.36 0L434.592 281.792 298.336 418.08a29.92 29.92 0 0 1-43.36 0l-43.36-43.36a29.92 29.92 0 0 1 0-43.36l201.28-201.28a29.92 29.92 0 0 1 43.36 0z"  horiz-adv-x="1024" />
      
      <glyph glyph-name="sdoc-description" unicode="&#58923;" d="M512 864C249.6 864 32 649.6 32 384s217.6-480 480-480 480 214.4 480 480S777.6 864 512 864z m-32-755.2c-19.2 0-35.2 16-35.2 35.2V419.2c0 19.2 16 35.2 35.2 35.2h67.2c19.2 0 35.2-16 35.2-35.2V144c0-19.2-16-35.2-35.2-35.2H480z m0 412.8c-19.2 0-35.2 16-35.2 35.2V624c0 19.2 16 35.2 35.2 35.2h67.2c19.2 0 35.2-16 35.2-35.2v-67.2c0-19.2-16-35.2-35.2-35.2H480z"  horiz-adv-x="1024" />
      
      <glyph glyph-name="sdoc-exclamation-triangle" unicode="&#58924;" d="M579.168 96V198.016c0 5.984-3.008 8.96-6.016 12-3.008 2.976-5.984 5.984-12 5.984H459.2c-6.016 0-9.024-3.008-12-6.016-3.008-2.976-6.016-8.96-6.016-12V96c0-6.016 3.008-8.992 6.016-12 2.976-3.008 5.984-6.016 12-6.016h101.984c6.016 0 8.992 3.008 12 6.016 3.008 3.008 6.016 8.992 6.016 12z m-3.008 200.992l8.992 246.016c0 3.008-3.008 8.992-5.984 8.992-6.016 3.008-9.024 6.016-12 6.016H450.144c-2.976 0-8.96-3.008-12-6.016-2.976-3.008-5.984-6.016-5.984-12l8.992-246.016c0-2.976 3.008-5.984 6.016-8.96 2.976-3.04 8.96-3.04 12-3.04h98.976c6.016 0 9.024 0 12 3.008 3.008 3.008 6.016 9.024 6.016 12z m-6.016 501.024l411.008-753.024c12-24 12-44.992 0-65.984a91.296 91.296 0 0 0-24-24c-12-6.016-20.992-9.024-32.992-9.024H99.168c-12 0-24 3.008-33.024 9.024a91.296 91.296 0 0 0-24 24c-12 24-14.976 44.992 0 65.984l408 753.024c6.016 11.968 15.04 20.992 24 26.976 12 6.016 24 8.992 36 8.992s24-2.976 36-8.96c12-6.016 18.016-15.04 24-27.04z"  horiz-adv-x="1024" />
      
      <glyph glyph-name="sdoc-exclamation-circle" unicode="&#58925;" d="M512 864c87.584 0 168.16-21.024 241.76-63.04a467.136 467.136 0 0 0 175.168-175.2C970.976 552.16 992 471.584 992 384s-21.024-168.16-63.04-241.76a467.136 467.136 0 0 0-175.2-175.168C680.16-74.976 599.584-96 512-96s-168.16 21.024-241.76 63.04a467.136 467.136 0 0 0-175.168 175.2C53.024 215.84 32 296.416 32 384s21.024 168.16 63.04 241.76a467.136 467.136 0 0 0 175.2 175.168C343.84 842.976 424.416 864 512 864z m80.576-781.312V201.824c0 7.008-3.52 10.496-7.008 14.016-3.52 3.488-7.008 7.008-14.016 7.008H452.48c-7.04 0-10.528-3.52-14.016-7.04-3.52-3.488-7.04-10.496-7.04-13.984v-119.136c0-7.008 3.52-10.528 7.04-14.016 3.52-3.52 10.496-7.008 14.016-7.008h119.104c7.04 0 10.528 3.52 14.016 7.008 3.52 3.52 7.04 10.496 7.04 14.016z m-3.52 217.216l10.56 388.928c0 3.488-3.52 7.008-7.04 10.496-3.52 3.52-10.496 3.52-14.016 3.52H441.92c-7.008 0-10.496 0-14.016-3.52-3.52-3.52-7.008-7.008-7.008-10.496l10.528-388.928c0-3.52 3.52-7.008 7.008-10.496 3.52-3.52 10.496-3.52 14.016-3.52h115.616c7.008 0 10.496 0 14.016 3.52 7.008 3.52 7.008 7.008 7.008 10.496z"  horiz-adv-x="1024" />
      
      <glyph glyph-name="sdoc-history" unicode="&#58904;" d="M547.2 864C809.6 864 1024 649.6 1024 387.2s-214.4-476.8-476.8-476.8c-115.2 0-224 41.6-304 108.8-6.4 6.4-12.8 12.8-22.4 19.2l-9.6 9.6c-9.6 22.4-6.4 48 12.8 70.4l3.2 6.4c22.4 22.4 44.8 32 70.4 22.4l6.4-3.2 6.4-6.4c3.2-3.2 9.6-9.6 16-12.8 60.8-51.2 137.6-83.2 220.8-83.2 188.8 0 339.2 153.6 339.2 339.2S732.8 726.4 547.2 726.4c-156.8 0-288-102.4-326.4-246.4h44.8c19.2 0 32-12.8 32-32 0-6.4-3.2-12.8-6.4-19.2l-115.2-166.4c-9.6-12.8-28.8-19.2-44.8-6.4l-9.6 9.6-115.2 166.4c-9.6 19.2-6.4 38.4 9.6 48 6.4 3.2 12.8 3.2 19.2 3.2h44.8C118.4 697.6 307.2 860.8 534.4 864h12.8z m-6.4-224c32 0 60.8-25.6 60.8-60.8v-179.2l115.2-89.6 3.2-3.2c22.4-19.2 22.4-54.4 3.2-76.8-22.4-25.6-60.8-25.6-86.4-6.4L480 352V582.4c0 28.8 28.8 57.6 60.8 57.6z"  horiz-adv-x="1024" />
      
      <glyph glyph-name="sdoc-quote-left" unicode="&#58905;" d="M876.8 380.8H736v112c0 60.8 51.2 112 112 112h16c25.6 0 41.6 19.2 41.6 41.6V726.4c0 22.4-19.2 41.6-41.6 41.6h-16c-153.6 0-281.6-124.8-281.6-278.4v-416c0-44.8 35.2-83.2 83.2-83.2h224c44.8 0 83.2 35.2 83.2 83.2v220.8c3.2 48-32 86.4-80 86.4z m-505.6 0H233.6v112c0 60.8 51.2 112 112 112h16c25.6 0 41.6 19.2 41.6 41.6V726.4c0 22.4-19.2 41.6-44.8 41.6h-16C192 768 64 643.2 64 489.6v-416c0-48 35.2-83.2 83.2-83.2h224c44.8 0 83.2 35.2 83.2 83.2v220.8c3.2 48-35.2 86.4-83.2 86.4z"  horiz-adv-x="1024" />
      
      <glyph glyph-name="sdoc-menu" unicode="&#58908;" d="M64 137.6h896V0H64v137.6zM64 768h896v-137.6H64V768z m0-313.6h896v-137.6H64v137.6z"  horiz-adv-x="1024" />
      
      <glyph glyph-name="sdoc-share" unicode="&#58914;" d="M800 832c-70.4 0-128-54.4-128-128s57.6-128 128-128 128 54.4 128 128-57.6 128-128 128zM224 512c-70.4 0-128-54.4-128-128s57.6-128 128-128 128 54.4 128 128-57.6 128-128 128z m576-320c-70.4 0-128-54.4-128-128s57.6-128 128-128 128 54.4 128 128-60.8 128-128 128zM374.4 531.2l217.6 134.4L640 582.4 422.4 448l-48 83.2z m32-192l246.4-147.2-48-83.2-246.4 147.2 48 83.2z"  horiz-adv-x="1024" />
      
      <glyph glyph-name="sdoc-user" unicode="&#58921;" d="M825.6 0H195.2c-32 0-60.8 32-44.8 64 60.8 140.8 198.4 224 361.6 224s304-80 361.6-224c12.8-32-12.8-64-48-64M316.8 576c0 105.6 86.4 192 195.2 192s195.2-86.4 195.2-192-86.4-192-195.2-192-195.2 86.4-195.2 192m672-556.8c-35.2 163.2-147.2 278.4-294.4 332.8 76.8 60.8 121.6 160 105.6 268.8-19.2 124.8-124.8 227.2-256 240C368 883.2 214.4 745.6 214.4 576c0-89.6 41.6-169.6 112-224-144-54.4-256-169.6-291.2-332.8-12.8-60.8 35.2-115.2 96-115.2h761.6c64 0 112 54.4 96 115.2"  horiz-adv-x="1024" />
      
    </font>
</defs>
</svg>
