<?xml version="1.0" standalone="no"?>
<!DOCTYPE svg PUBLIC "-//W3C//DTD SVG 1.1//EN" "http://www.w3.org/Graphics/SVG/1.1/DTD/svg11.dtd" >
<svg xmlns="http://www.w3.org/2000/svg">
  <metadata>Created by iconfont</metadata>
  <defs>
  <font id="sf3-font" horiz-adv-x="1024">
    <font-face
      font-family="sf3-font"
      font-weight="400"
      font-stretch="normal"
      units-per-em="1024"
      ascent="896"
      descent="-128"
    />
      <missing-glyph />
      
      <glyph glyph-name="zoom-out" unicode="&#58928;" d="M0 440.888889m56.888889 0l910.222222 0q56.888889 0 56.888889-56.888889l0 0q0-56.888889-56.888889-56.888889l-910.222222 0q-56.888889 0-56.888889 56.888889l0 0q0 56.888889 56.888889 56.888889Z"  horiz-adv-x="1024" />
      
      <glyph glyph-name="current-location" unicode="&#58926;" d="M512 896c282.7776 0 512-229.2224 512-512s-229.2224-512-512-512S0 101.2224 0 384 229.2224 896 512 896z m51.2512-105.5744L563.2 691.2a51.2 51.2 0 0 0-102.4 0V790.4256a409.8048 409.8048 0 0 1-355.2256-355.328L107.52 435.2h102.4a51.2 51.2 0 1 0 0-102.4h-102.4l-1.9456 0.0512A409.8048 409.8048 0 0 1 460.8-22.4768V76.8a51.2 51.2 0 0 0 102.4 0l0.0512-99.2256a409.8048 409.8048 0 0 1 355.1744 355.1744L824.32 332.8a51.2 51.2 0 0 0 0 102.4h94.1056a409.8048 409.8048 0 0 1-355.1744 355.2256zM384 512m128 0l0 0q128 0 128-128l0 0q0-128-128-128l0 0q-128 0-128 128l0 0q0 128 128 128Z"  horiz-adv-x="1024" />
      
      <glyph glyph-name="zoom-in" unicode="&#58927;" d="M19.132632 448.512m53.894736 0l862.31579 0q53.894737 0 53.894737-53.894737l0 0q0-53.894737-53.894737-53.894737l-862.31579 0q-53.894737 0-53.894736 53.894737l0 0q0 53.894737 53.894736 53.894737ZM450.290526-36.540632V825.775158a53.894737 53.894737 0 0 0 107.789474 0v-862.31579a53.894737 53.894737 0 1 0-107.789474 0z"  horiz-adv-x="1024" />
      
      <glyph glyph-name="ai" unicode="&#59476;" d="M515.2 896C796.8 896 1024 678.4 1024 416s-227.2-480-508.8-480h-19.2c-12.8 0-118.4-6.4-156.8-19.2-32-6.4-89.6-28.8-124.8-38.4-3.2-3.2-16-6.4-22.4-6.4-16 0-28.8 12.8-32 32-6.4 35.2-6.4 96 12.8 150.4C67.2 144 0 268.8 0 416 3.2 678.4 230.4 896 515.2 896zM512 800C281.6 800 96 620.8 96 403.2c0-112 54.4-211.2 144-291.2l38.4-35.2c-12.8-25.6-22.4-41.6-25.6-54.4-6.4-16-9.6-41.6-6.4-54.4 25.6 12.8 64 32 92.8 38.4 54.4 12.8 134.4 19.2 172.8 19.2 182.4 0 416 160 416 377.6S742.4 800 512 800z m-92.8-124.8C329.6 675.2 256 604.8 256 518.4v-320c0-3.2 3.2-9.6 9.6-9.6h89.6V515.2c0 32 28.8 60.8 60.8 60.8s60.8-28.8 60.8-60.8v-73.6H384c-3.2 0-9.6 0-12.8-3.2-3.2-3.2-3.2-9.6-3.2-12.8v-60.8c0-12.8 9.6-19.2 19.2-19.2H480v-156.8h89.6c3.2 0 9.6 3.2 9.6 9.6v320c0 86.4-70.4 156.8-160 156.8z m297.6-131.2h-57.6c-12.8 0-19.2-6.4-19.2-19.2v-313.6c0-12.8 6.4-19.2 19.2-19.2h57.6c12.8 0 19.2 6.4 19.2 19.2v313.6c0 12.8-6.4 19.2-19.2 19.2z m-28.8 32c25.6 0 48 22.4 48 48S713.6 672 688 672 640 649.6 640 624s22.4-48 48-48z"  horiz-adv-x="1024" />
      
      <glyph glyph-name="time" unicode="&#59474;" d="M896 384c0 211.2-172.8 384-384 384S128 595.2 128 384s172.8-384 384-384 384 172.8 384 384m96 0c0-262.4-217.6-480-480-480S32 121.6 32 384 249.6 864 512 864s480-217.6 480-480m-192-48c0-25.6-22.4-48-48-48h-192c-54.4 0-96 41.6-96 96V624c0 25.6 22.4 48 48 48s48-22.4 48-48v-192c0-25.6 22.4-48 48-48h144c25.6 0 48-22.4 48-48"  horiz-adv-x="1024" />
      
      <glyph glyph-name="description" unicode="&#59475;" d="M800 809.6l134.4-134.4c32-32 32-86.4 0-115.2L332.8-44.8 64-64l16 265.6 604.8 608c32 28.8 86.4 28.8 115.2 0z m-204.8-230.4L179.2 160l-6.4-118.4 118.4 9.6 416 416-112 112z m150.4 150.4l-80-80 112-112 80 80-112 112z"  horiz-adv-x="1024" />
      
      <glyph glyph-name="hi" unicode="&#58883;" d="M512 864c262.4 0 480-214.4 480-480 0-96-28.8-188.8-76.8-262.4l64-150.4c3.2-9.6 0-19.2-9.6-22.4-3.2 0-6.4-3.2-9.6 0l-172.8 44.8c-80-54.4-172.8-83.2-272-83.2C249.6-96 32 121.6 32 384S249.6 864 512 864zM512 528v-131.2H390.4V528h-64v-326.4h64V336H512v-134.4h60.8V528H512z m147.2-67.2c22.4 0 38.4 16 38.4 38.4 0 19.2-16 38.4-38.4 38.4-19.2 0-38.4-19.2-38.4-38.4 3.2-19.2 22.4-38.4 38.4-38.4z m-25.6-259.2h57.6V435.2h-57.6v-233.6z"  horiz-adv-x="1024" />
      
      <glyph glyph-name="refresh" unicode="&#59473;" d="M512 864c163.2 0 304-76.8 390.4-201.6V742.4c0 25.6 22.4 44.8 44.8 44.8S992 768 992 742.4v-179.2c0-25.6-22.4-44.8-44.8-44.8h-195.2c-16 0-32 9.6-38.4 22.4-9.6 16-9.6 35.2 0 48 6.4 12.8 22.4 19.2 38.4 19.2h76.8c-70.4 99.2-185.6 166.4-316.8 166.4C294.4 774.4 121.6 601.6 121.6 384S294.4-6.4 512-6.4c182.4 0 332.8 121.6 377.6 291.2 6.4 19.2 19.2 32 41.6 32 12.8 0 25.6-3.2 38.4-16 16-16 12.8-32 9.6-51.2C921.6 48 729.6-96 512-96 249.6-96 32 121.6 32 384S249.6 864 512 864z"  horiz-adv-x="1024" />
      
      <glyph glyph-name="ai_generated" unicode="&#59471;" d="M486.4 896C214.4 883.2 0 659.2 0 384c0-115.2 35.2-220.8 105.6-313.6L6.4-105.6c-3.2-3.2-3.2-9.6 0-12.8 3.2-6.4 9.6-9.6 12.8-9.6H512c275.2 0 499.2 214.4 512 486.4 6.4 144-44.8 278.4-140.8 380.8S656 896 512 896h-25.6z m-121.6-288h102.4L640 160h-102.4l-41.6 102.4h-160L294.4 160H192l172.8 448z m336 0H800v-448h-99.2V608zM416 499.2l-60.8-156.8h118.4L416 499.2z"  horiz-adv-x="1024" />
      
      <glyph glyph-name="map" unicode="&#59470;" d="M976 646.4c9.6-6.4 16-19.2 16-32v-563.2c0-16-9.6-32-25.6-38.4l-281.6-105.6c-9.6-3.2-19.2-3.2-25.6 0L352 9.6l-265.6-102.4c-12.8-3.2-25.6-3.2-38.4 3.2-9.6 6.4-16 19.2-16 32V505.6c0 16 9.6 32 25.6 38.4l128 48c-6.4-35.2-6.4-73.6 0-108.8l-64-28.8v-428.8l179.2 76.8v172.8l89.6-112v-86.4l240-80v166.4l89.6 112v-256l179.2 70.4V531.2l-60.8-25.6c3.2 35.2 3.2 70.4-6.4 105.6l102.4 38.4c16 6.4 28.8 3.2 41.6-3.2zM297.6 777.6C416 892.8 604.8 892.8 723.2 777.6c105.6-99.2 118.4-256 35.2-374.4l-198.4-246.4-9.6-9.6c-28.8-22.4-67.2-19.2-89.6 9.6l-195.2 243.2c-83.2 118.4-67.2 275.2 32 377.6z m355.2-67.2c-76.8 70.4-204.8 70.4-281.6 0-70.4-64-76.8-163.2-22.4-236.8l131.2-176c16-22.4 48-22.4 64 0l131.2 176c54.4 73.6 48 172.8-22.4 236.8zM512 704c70.4 0 128-57.6 128-128 0-44.8-25.6-86.4-64-112s-89.6-22.4-128 0-64 64-64 112c0 70.4 57.6 128 128 128z m0-96c-19.2 0-32-12.8-32-32s12.8-32 32-32 32 12.8 32 32-12.8 32-32 32z"  horiz-adv-x="1024" />
      
      <glyph glyph-name="photos-classfied-by-people" unicode="&#59469;" d="M438.4 336c44.8-25.6 99.2-25.6 144 0s73.6 73.6 73.6 124.8c0 80-64 144-144 144s-144-64-144-144c0-51.2 25.6-99.2 70.4-124.8zM832 70.4c0-51.2-144-124.8-297.6-128-166.4 0-342.4 73.6-342.4 128 0 105.6 144 169.6 320 169.6s320-64 320-169.6zM512 896c281.6 0 512-230.4 512-512s-230.4-512-512-512S0 102.4 0 384 230.4 896 512 896z m0-96C281.6 800 96 614.4 96 384s185.6-416 416-416 416 185.6 416 416S742.4 800 512 800z"  horiz-adv-x="1024" />
      
      <glyph glyph-name="Kanban" unicode="&#59468;" d="M896 832c54.4 0 96-41.6 96-96v-480c0-54.4-41.6-96-96-96h-160v-128c0-54.4-41.6-96-96-96h-256c-54.4 0-96 41.6-96 96V352H128c-54.4 0-96 41.6-96 96V736c0 54.4 41.6 96 96 96h768z m-256-96h-256v-704h256V736z m256 0h-160v-480h160V736zM288 736H128v-288h160V736z"  horiz-adv-x="1024" />
      
      <glyph glyph-name="about1" unicode="&#59467;" d="M512 864c265.6 0 480-214.4 480-480s-214.4-480-480-480S32 118.4 32 384 246.4 864 512 864z m-12.8-352c-25.6 3.2-67.2-6.4-124.8-28.8l-6.4-35.2c35.2 12.8 60.8 19.2 76.8 3.2 28.8-28.8 0-92.8-9.6-121.6s-41.6-80-32-140.8c6.4-41.6 51.2-67.2 96-67.2 28.8 0 67.2 9.6 112 28.8l6.4 35.2c-25.6-9.6-51.2-12.8-73.6-6.4-38.4 12.8-9.6 89.6 0 118.4s38.4 102.4 32 150.4c-6.4 44.8-38.4 60.8-76.8 64z m22.4 192C480 704 448 672 448 636.8s32-70.4 73.6-70.4 73.6 32 73.6 70.4-32 67.2-73.6 67.2z"  horiz-adv-x="1024" />
      
      <glyph glyph-name="unfold" unicode="&#59465;" d="M512 332.8c9.6 0 22.4 3.2 28.8 12.8l342.4 352c16 16 16 44.8 0 60.8s-41.6 16-57.6 0l-313.6-320-313.6 320c-16 16-41.6 16-57.6 0-9.6-9.6-12.8-22.4-12.8-32 0-12.8 3.2-22.4 12.8-32l342.4-352c6.4-6.4 19.2-9.6 28.8-9.6zM512 0c9.6 0 22.4 3.2 28.8 12.8l342.4 352c16 16 16 44.8 0 60.8s-41.6 16-57.6 0l-313.6-320-313.6 320c-16 16-41.6 16-57.6 0-9.6-9.6-12.8-19.2-12.8-32s3.2-22.4 12.8-28.8l342.4-352c6.4-9.6 19.2-12.8 28.8-12.8z"  horiz-adv-x="1024" />
      
      <glyph glyph-name="fold" unicode="&#59466;" d="M512 435.2c9.6 0 22.4-3.2 28.8-12.8l342.4-352c16-16 16-44.8 0-60.8s-41.6-16-57.6 0l-313.6 320-313.6-320c-16-16-41.6-16-57.6 0-9.6 9.6-12.8 22.4-12.8 32 0 12.8 3.2 22.4 12.8 28.8l342.4 352c6.4 9.6 19.2 12.8 28.8 12.8zM512 768c9.6 0 22.4-3.2 28.8-12.8l342.4-352c16-16 16-44.8 0-60.8s-41.6-16-57.6 0L512 662.4l-313.6-320c-16-16-41.6-16-57.6 0-9.6 9.6-12.8 19.2-12.8 32s3.2 22.4 12.8 28.8l342.4 352c6.4 9.6 19.2 12.8 28.8 12.8z"  horiz-adv-x="1024" />
      
      <glyph glyph-name="import-sdoc" unicode="&#59453;" d="M800 544l-224 224H192v-768h608v128h96v-147.2c0-41.6-35.2-76.8-76.8-76.8H172.8c-19.2 0-41.6 6.4-54.4 22.4s-22.4 32-22.4 54.4V787.2c0 19.2 9.6 41.6 22.4 54.4S153.6 864 172.8 864h432c12.8 0 22.4-3.2 32-12.8l246.4-249.6c9.6-9.6 12.8-19.2 12.8-32V352h-96v192zM422.4 262.4l128 131.2c19.2 19.2 54.4 22.4 73.6 3.2 19.2-19.2 16-51.2-3.2-70.4L579.2 288h400c22.4 0 41.6-22.4 41.6-48s-22.4-48-41.6-48H576l41.6-38.4c19.2-19.2 22.4-54.4 3.2-73.6-19.2-19.2-54.4-16-73.6 3.2l-128 137.6c-9.6 9.6-9.6 28.8 3.2 41.6zM585.6 512c-25.6 0-41.6 16-41.6 41.6V790.4c0 25.6 22.4 41.6 48 41.6s48-16 48-41.6V608h182.4c25.6 0 41.6-22.4 41.6-48s-16-48-41.6-48h-236.8z"  horiz-adv-x="1024" />
      
      <glyph glyph-name="upload-folder" unicode="&#59444;" d="M448 704H128v-640h768V608H560c-9.6 0-12.8 3.2-19.2 9.6L448 704z m144 0H928c35.2 0 64-28.8 64-64v-608c0-35.2-28.8-64-64-64H96c-35.2 0-64 28.8-64 64V736c0 35.2 28.8 64 64 64h377.6c6.4 0 9.6-3.2 12.8-6.4L592 704z m-51.2-172.8l150.4-150.4c16-16 16-44.8 0-60.8-6.4-9.6-38.4-22.4-60.8 0l-76.8 76.8v-220.8c0-22.4-19.2-41.6-41.6-41.6-22.4 0-41.6 19.2-41.6 41.6v220.8L393.6 320c-19.2-19.2-44.8-16-60.8 0s-16 44.8 0 60.8l150.4 150.4c16 16 41.6 16 57.6 0z"  horiz-adv-x="1024" />
      
      <glyph glyph-name="upload-files1" unicode="&#59452;" d="M851.2-96H172.8c-19.2 0-41.6 6.4-54.4 22.4s-22.4 32-22.4 54.4V787.2c0 19.2 9.6 41.6 22.4 54.4S153.6 864 172.8 864h464c12.8 0 22.4-3.2 32-12.8l246.4-249.6c9.6-9.6 12.8-19.2 12.8-32v-588.8c0-41.6-35.2-76.8-76.8-76.8zM192 0h640V544l-224 224H192v-768z m348.8 531.2l150.4-150.4c16-16 16-44.8 0-60.8-6.4-9.6-38.4-22.4-60.8 0l-76.8 76.8v-220.8c0-22.4-19.2-41.6-41.6-41.6-22.4 0-41.6 19.2-41.6 41.6v220.8L393.6 320c-19.2-19.2-44.8-16-60.8 0s-16 44.8 0 60.8l150.4 150.4c16 16 41.6 16 57.6 0z"  horiz-adv-x="1024" />
      
      <glyph glyph-name="open" unicode="&#59464;" d="M403.2 832c22.4 0 44.8-22.4 44.8-48S432 736 403.2 736H160v-243.2c0-22.4-22.4-44.8-48-44.8S64 467.2 64 492.8V787.2C64 816 80 832 108.8 832h294.4z m217.6-896c-19.2 0-44.8 22.4-44.8 48s16 48 44.8 48H864v243.2c0 19.2 22.4 44.8 48 44.8s48-19.2 48-44.8v-297.6c0-25.6-16-44.8-44.8-44.8h-294.4zM960 790.4v-300.8c0-19.2-22.4-44.8-48-44.8s-48 19.2-48 48V665.6l-208-198.4c-16-16-41.6-9.6-60.8 6.4s-22.4 48-3.2 64L793.6 736h-172.8c-22.4 0-44.8 22.4-44.8 48S592 832 617.6 832H928c16-3.2 28.8-12.8 35.2-35.2v-6.4zM64-22.4v300.8c0 19.2 22.4 41.6 48 41.6s48-16 48-44.8v-172.8l208 198.4c16 16 41.6 9.6 60.8-6.4 16-16 22.4-48 3.2-64L230.4 32h172.8c19.2 0 44.8-22.4 44.8-48s-16-48-41.6-48H99.2c-16 3.2-28.8 12.8-35.2 35.2v6.4z"  horiz-adv-x="1024" />
      
      <glyph glyph-name="group1" unicode="&#59462;" d="M896 832c54.4 0 96-41.6 96-96v-704c0-54.4-41.6-96-96-96H128c-54.4 0-96 41.6-96 96V736c0 54.4 41.6 96 96 96h768z m0-96H128v-704h768V736zM304 528m-80 0a80 80 0 1 1 160 0 80 80 0 1 1-160 0ZM496 576h256c25.6 0 48-22.4 48-48S777.6 480 752 480h-256C470.4 480 448 502.4 448 528S470.4 576 496 576zM304 240m-80 0a80 80 0 1 1 160 0 80 80 0 1 1-160 0ZM496 288h256c25.6 0 48-22.4 48-48S777.6 192 752 192h-256C470.4 192 448 214.4 448 240S470.4 288 496 288z"  horiz-adv-x="1024" />
      
      <glyph glyph-name="filter" unicode="&#59463;" d="M617.6 160c28.8 0 54.4-22.4 54.4-48s-22.4-48-54.4-48h-214.4c-28.8 0-54.4 22.4-54.4 48s22.4 48 54.4 48h214.4z m169.6 272c25.6 0 44.8-22.4 44.8-48s-19.2-48-44.8-48H236.8c-25.6 0-44.8 22.4-44.8 48s19.2 48 44.8 48h550.4z m236.8 224c0-25.6-22.4-48-48-48h-928C22.4 608 0 630.4 0 656S22.4 704 48 704h931.2c22.4 0 44.8-22.4 44.8-48z"  horiz-adv-x="1024" />
      
      <glyph glyph-name="icon" unicode="&#58914;" d="M512-32c230.4 0 416 185.6 416 416S742.4 800 512 800 96 614.4 96 384s185.6-416 416-416z m0-96C230.4-128 0 102.39999999999998 0 384S230.4 896 512 896s512-230.4 512-512-230.4-512-512-512zM352 400c44.8 0 80 35.2 80 80s-35.2 80-80 80-80-35.2-80-80 35.2-80 80-80z m320 0c44.8 0 80 35.2 80 80s-35.2 80-80 80-80-35.2-80-80 35.2-80 80-80zM512 153.60000000000002c-80 0-153.6 51.2-188.8 128 0 0-3.2 32-38.4 32-35.2 0-32-32-32-32 35.2-108.8 137.6-192 256-192s227.2 83.2 256 192c0 0 0 32-32 32s-35.2-32-35.2-32C672 208 595.2 153.60000000000002 512 153.60000000000002z"  horiz-adv-x="1024" />
      
      <glyph glyph-name="enter" unicode="&#59461;" d="M912 768c25.6 0 48-25.6 48-48V288c0-54.4-41.6-96-96-96H240l124.8-124.8c19.2-19.2 19.2-51.2 3.2-73.6-19.2-22.4-51.2-22.4-70.4-6.4l-6.4 3.2-211.2 211.2c-19.2 19.2-19.2 54.4 0 73.6l211.2 211.2c19.2 19.2 51.2 19.2 73.6 3.2 22.4-19.2 22.4-51.2 6.4-70.4l-6.4-3.2-124.8-128H832c19.2 0 32 12.8 32 32V720c0 28.8 19.2 48 48 48z"  horiz-adv-x="1024" />
      
      <glyph glyph-name="open-sidebar" unicode="&#59459;" d="M464 819.2c-19.2-19.2-19.2-48 0-67.2L838.4 384 464 16c-16-16-16-48 0-67.2 9.6-9.6 22.4-12.8 35.2-12.8 12.8 0 25.6 6.4 35.2 12.8L944 352c9.6 9.6 16 22.4 16 35.2 0 12.8-6.4 25.6-16 35.2L534.4 819.2c-19.2 16-48 16-70.4 0z m-384 0c-22.4-19.2-22.4-51.2 0-70.4L451.2 384 80 16c-19.2-19.2-19.2-48 0-67.2 6.4-6.4 19.2-12.8 35.2-12.8 12.8 0 25.6 6.4 35.2 12.8L560 352c9.6 9.6 16 22.4 16 35.2 0 12.8-6.4 25.6-16 35.2L150.4 819.2c-22.4 16-51.2 16-70.4 0z"  horiz-adv-x="1024" />
      
      <glyph glyph-name="close-sidebar" unicode="&#59460;" d="M560 819.2c19.2-19.2 19.2-48 0-67.2L185.6 384l371.2-368c19.2-19.2 19.2-48 0-67.2-9.6-9.6-22.4-12.8-35.2-12.8-12.8 0-25.6 6.4-35.2 12.8L80 352c-9.6 6.4-16 19.2-16 32s6.4 25.6 16 35.2L489.6 819.2c19.2 16 48 16 70.4 0z m384 0c19.2-19.2 19.2-48 0-67.2L572.8 384l371.2-368c19.2-19.2 19.2-48 0-67.2-9.6-9.6-22.4-12.8-35.2-12.8-12.8 0-25.6 6.4-35.2 12.8L464 352c-9.6 9.6-16 22.4-16 35.2 0 12.8 6.4 25.6 16 35.2L873.6 819.2c22.4 16 51.2 16 70.4 0z"  horiz-adv-x="1024" />
      
      <glyph glyph-name="exclamation-triangle" unicode="&#59456;" d="M513.23328 832c12.8 0 25.6-3.2 38.4-9.6 12.8-6.4 19.2-16 25.6-28.8l438.4-748.8c12.8-25.6 12.8-48 0-70.4-6.4-9.6-16-19.2-25.6-25.6-12.8-6.4-22.4-9.6-35.2-9.6H71.63328c-12.8 0-25.6 3.2-35.2 9.6-9.6 6.4-19.2 16-25.6 25.6-12.8 25.6-16 48 0 70.4L449.23328 793.6c6.4 12.8 16 22.4 25.6 28.8 12.8 6.4 25.6 9.6 38.4 9.6z m0-640c-44.8 0-80-35.2-80-80S468.43328 32 513.23328 32s80 35.2 80 80S558.03328 192 513.23328 192z m64 352h-124.8c-6.4 0-9.6 0-12.8-3.2-3.2-3.2-6.4-6.4-6.4-9.6l9.6-265.6c0-3.2 3.2-6.4 6.4-9.6 3.2-3.2 9.6-3.2 12.8-3.2h102.4c6.4 0 9.6 0 12.8 3.2 6.4 3.2 6.4 6.4 6.4 9.6l9.6 265.6c0 3.2-3.2 6.4-6.4 9.6-3.2 3.2-6.4 3.2-9.6 3.2z"  horiz-adv-x="1025" />
      
      <glyph glyph-name="check-circle" unicode="&#59457;" d="M992 384c0-265.6-214.4-480-480-480S32 118.39999999999998 32 384 246.4 864 512 864s480-214.4 480-480z m-534.4-252.8l355.2 355.2c6.4 6.4 9.6 12.8 9.6 22.4 0 9.6-3.2 16-9.6 22.4L768 572.8c-6.4 6.4-12.8 9.6-22.4 9.6s-16-3.2-22.4-9.6l-291.2-291.2-137.6 137.6c-6.4 6.4-12.8 9.6-22.4 9.6s-12.8-3.2-16-9.6l-44.8-44.8c-6.4-6.4-9.6-12.8-9.6-22.4 0-9.6 3.2-16 9.6-22.4l201.6-201.6c6.4-6.4 12.8-9.6 22.4-9.6 6.4 3.2 16 6.4 22.4 12.8z"  horiz-adv-x="1024" />
      
      <glyph glyph-name="exclamation-circle" unicode="&#59458;" d="M512 864c86.4 0 169.6-22.4 243.2-64s134.4-102.4 176-176c41.6-73.6 64-153.6 64-243.2s-22.4-169.6-64-243.2-102.4-134.4-176-176c-73.6-41.6-153.6-64-243.2-64s-169.6 22.4-243.2 64-134.4 102.4-176 176c-41.6 73.6-64 153.6-64 243.2s22.4 169.6 64 243.2C137.6 697.6 198.4 758.4 268.8 800c73.6 41.6 156.8 64 243.2 64z m0-608c-44.8 0-80-35.2-80-80S467.2 96 512 96s80 35.2 80 80S556.8 256 512 256z m64 416h-124.8c-6.4 0-9.6 0-12.8-3.2-3.2-3.2-6.4-6.4-6.4-9.6l9.6-329.6c0-3.2 3.2-6.4 6.4-9.6 3.2-3.2 9.6-3.2 12.8-3.2h102.4c6.4 0 9.6 0 12.8 3.2 6.4 3.2 6.4 6.4 6.4 9.6l9.6 329.6c0 3.2-3.2 6.4-6.4 9.6-3.2 3.2-6.4 3.2-9.6 3.2z"  horiz-adv-x="1024" />
      
      <glyph glyph-name="print" unicode="&#59442;" d="M800 864c19.2 0 32-12.8 32-32v-192h96c35.2 0 64-28.8 64-64v-416c0-19.2-12.8-32-32-32h-128v-192c0-19.2-12.8-32-32-32H224c-19.2 0-32 12.8-32 32v192H64c-19.2 0-32 12.8-32 32V576c0 35.2 28.8 64 64 64h96V832c0 16 12.8 28.8 28.8 32H800z m-64-640H288v-224h448v224z m128 320H160c-19.2 0-32-12.8-32-32v-272c0-9.6 6.4-16 16-16H192v64c0 19.2 12.8 32 32 32h576c19.2 0 32-12.8 32-32v-64h48c9.6 0 16 6.4 16 16V512c0 19.2-12.8 32-32 32z m-80-64c25.6 0 48-22.4 48-48s-22.4-48-48-48-48 22.4-48 48 22.4 48 48 48zM736 768H288v-128h448V768z"  horiz-adv-x="1024" />
      
      <glyph glyph-name="spinner" unicode="&#59443;" d="M416-32c0-54.4 41.6-96 96-96s96 41.6 96 96-41.6 96-96 96-96-41.6-96-96z m0 832c0-54.4 41.6-96 96-96s96 41.6 96 96-41.6 96-96 96-96-41.6-96-96z m512-320c-54.4 0-96-41.6-96-96s41.6-96 96-96 96 41.6 96 96-41.6 96-96 96zM0 384c0-54.4 41.6-96 96-96s96 41.6 96 96-41.6 96-96 96-96-41.6-96-96zM739.2 745.6c-25.6-25.6-35.2-60.8-25.6-92.8 9.6-32 35.2-57.6 67.2-67.2s67.2 0 92.8 25.6c38.4 38.4 38.4 99.2 0 134.4s-99.2 38.4-134.4 0z m0-588.8c-25.6-22.4-35.2-60.8-25.6-92.8 9.6-35.2 35.2-60.8 70.4-70.4 35.2-9.6 70.4 3.2 92.8 28.8 38.4 38.4 38.4 99.2 0 134.4-41.6 38.4-102.4 38.4-137.6 0zM284.8 745.6c-22.4 25.6-57.6 35.2-92.8 25.6C160 761.6 134.4 736 124.8 704c-9.6-32 0-67.2 25.6-92.8 22.4-25.6 60.8-35.2 92.8-25.6s57.6 35.2 67.2 67.2 0 70.4-25.6 92.8z"  horiz-adv-x="1024" />
      
      <glyph glyph-name="lock" unicode="&#59445;" d="M512 896c147.2 0 256-128 256-288v-96h41.6c64 0 118.4-57.6 118.4-128v-384c0-70.4-54.4-128-118.4-128H214.4c-64 0-118.4 57.6-118.4 128V384c0 70.4 54.4 128 118.4 128H256V608c0 160 108.8 288 256 288z m288-480H224c-19.2 0-32-12.8-32-32v-384c0-19.2 12.8-32 32-32h576c19.2 0 32 12.8 32 32V384c0 19.2-12.8 32-32 32zM512 800c-89.6 0-160-80-160-179.2V512h320V620.8C672 720 601.6 800 512 800z"  horiz-adv-x="1024" />
      
      <glyph glyph-name="save" unicode="&#59446;" d="M704 864c44.8 0 76.8-9.6 96-32 28.8-32 128-153.6 160-192 22.4-25.6 32-57.6 32-96v-544c0-54.4-41.6-96-96-96H128c-54.4 0-96 41.6-96 96V768c0 54.4 41.6 96 96 96h576zM192 768H160c-19.2 0-32-12.8-32-32v-704c0-19.2 12.8-32 32-32h704c19.2 0 32 12.8 32 32V560l-160 188.8V544c0-19.2-12.8-32-32-32H224c-19.2 0-32 12.8-32 32V768z m320-352c89.6 0 160-70.4 160-160s-70.4-160-160-160-160 70.4-160 160 70.4 160 160 160z m0-96c-35.2 0-64-28.8-64-64s28.8-64 64-64 64 28.8 64 64-28.8 64-64 64z m128 448H288v-160h352V768z"  horiz-adv-x="1027" />
      
      <glyph glyph-name="eye" unicode="&#59447;" d="M512 672c-105.6 0-192-48-256-112-60.8-60.8-105.6-131.2-128-179.2 22.4-51.2 64-121.6 128-179.2 67.2-64 153.6-112 256-112s192 48 256 112c60.8 60.8 105.6 131.2 128 179.2-22.4 51.2-64 121.6-128 179.2-64 64-150.4 112-256 112zM192 630.4C268.8 704 377.6 768 512 768s243.2-64 320-137.6c76.8-73.6 131.2-163.2 153.6-224 6.4-12.8 6.4-28.8 0-41.6-25.6-60.8-76.8-150.4-153.6-224C755.2 64 646.4 0 512 0s-243.2 64-320 137.6c-76.8 73.6-131.2 163.2-153.6 224-6.4 12.8-6.4 28.8 0 41.6 22.4 64 73.6 153.6 153.6 227.2z m320-384c73.6 0 134.4 60.8 134.4 137.6s-60.8 137.6-134.4 137.6h-3.2c3.2-9.6 3.2-19.2 3.2-28.8 0-60.8-48-108.8-105.6-108.8-9.6 0-19.2 0-25.6 3.2v-3.2c-3.2-76.8 57.6-137.6 131.2-137.6z m0 358.4c118.4 0 214.4-99.2 214.4-220.8s-96-220.8-214.4-220.8-214.4 99.2-214.4 220.8 96 220.8 214.4 220.8z"  horiz-adv-x="1024" />
      
      <glyph glyph-name="folder-open" unicode="&#59448;" d="M937.6 480H864V592c0 54.4-41.6 96-96 96h-281.6L371.2 832H86.4C38.4 832 0 784 0 729.6v-688C0-16 38.4-64 86.4-64h710.4c28.8 0 57.6 19.2 73.6 48l140.8 342.4c35.2 70.4-6.4 153.6-73.6 153.6zM112 736h217.6l112-144h313.6c9.6 0 16-6.4 16-16v-96H272c-28.8 0-57.6-19.2-73.6-51.2L96 185.6V720c0 9.6 6.4 16 16 16z m662.4-704h-608c-9.6 0-16 6.4-16 16v6.4l124.8 320c3.2 6.4 9.6 9.6 16 9.6h620.8c9.6 0 16-6.4 16-16v-6.4l-137.6-320c-3.2-6.4-9.6-9.6-16-9.6z"  horiz-adv-x="1024" />
      
      <glyph glyph-name="expand-arrows-alt" unicode="&#59449;" d="M569.6 384l243.2-243.2 108.8 108.8c16 16 41.6 3.2 41.6-16v-272c0-12.8-9.6-22.4-22.4-22.4h-272c-22.4 0-32 25.6-16 41.6l108.8 108.8-249.6 236.8-243.2-243.2 108.8-108.8c16-16 3.2-41.6-16-41.6H86.4c-12.8 3.2-22.4 12.8-22.4 28.8v272c0 22.4 25.6 32 41.6 16l108.8-108.8 243.2 243.2-246.4 243.2-108.8-108.8c-12.8-12.8-38.4-3.2-38.4 19.2V809.6c0 12.8 9.6 22.4 25.6 22.4h272c22.4 0 32-25.6 16-41.6L268.8 684.8l243.2-243.2 243.2 243.2-108.8 108.8c-12.8 12.8-3.2 38.4 19.2 38.4h272c12.8 0 22.4-9.6 22.4-22.4v-272c0-22.4-25.6-32-41.6-16l-108.8 108.8-240-246.4z"  horiz-adv-x="1024" />
      
      <glyph glyph-name="eye-slash" unicode="&#59450;" d="M80.91936 793.6l156.8-124.8C311.31936 726.4 400.91936 768 512.91936 768c134.4 0 243.2-64 320-137.6 76.8-73.6 131.2-163.2 153.6-224 6.4-12.8 6.4-28.8 0-41.6-22.4-51.2-64-124.8-124.8-192l140.8-112c19.2-16 22.4-44.8 6.4-67.2-16-19.2-48-22.4-67.2-6.4l-928 736C-2.28064 736-5.48064 768 10.51936 787.2s48 22.4 70.4 6.4z m32-256L186.51936 480C160.91936 441.6 141.71936 409.6 128.91936 380.8c22.4-51.2 64-121.6 128-179.2 67.2-64 153.6-112 256-112 44.8 0 86.4 9.6 124.8 22.4l76.8-64c-57.6-32-124.8-51.2-201.6-51.2-134.4 0-243.2 64-320 137.6-76.8 73.6-131.2 163.2-153.6 224-6.4 12.8-6.4 28.8 0 41.6 12.8 41.6 38.4 89.6 73.6 137.6z m185.6-150.4l112-89.6c12.8-16 25.6-25.6 44.8-35.2l112-89.6c-16-3.2-35.2-6.4-51.2-6.4-121.6-3.2-217.6 96-217.6 220.8zM512.91936 672c-76.8 0-144-25.6-198.4-64l67.2-51.2c35.2 28.8 80 48 131.2 48 118.4 0 214.4-99.2 214.4-220.8 0-32-6.4-60.8-19.2-89.6l86.4-70.4c48 54.4 83.2 112 102.4 153.6-22.4 51.2-64 121.6-128 179.2C704.91936 624 618.51936 672 512.91936 672z m0-150.4h-3.2c3.2-9.6 3.2-19.2 3.2-28.8 0-12.8-3.2-25.6-6.4-38.4l134.4-108.8c3.2 12.8 3.2 22.4 3.2 35.2 3.2 80-57.6 140.8-131.2 140.8z"  horiz-adv-x="1024" />
      
      <glyph glyph-name="calendar-alt" unicode="&#59451;" d="M320 896c35.2 0 64-28.8 64-64v-64h256V832c0 35.2 28.8 64 64 64s64-28.8 64-64v-64h96c54.4 0 96-41.6 96-96v-96H64V672c0 54.4 41.6 96 96 96h96V832c0 35.2 28.8 64 64 64zM64 512h896v-544c0-54.4-41.6-96-96-96H160c-54.4 0-96 41.6-96 96V512z m128-160v-64c0-16 12.8-32 32-32h64c19.2 0 32 16 32 32v64c0 16-12.8 32-32 32H224c-19.2 0-32-16-32-32z m256 0v-64c0-16 12.8-32 32-32h64c16 0 32 16 32 32v64c0 16-16 32-32 32h-64c-19.2 0-32-16-32-32z m288 32c-16 0-32-16-32-32v-64c0-16 16-32 32-32h64c16 0 32 16 32 32v64c0 16-16 32-32 32h-64zM192 96v-64c0-16 12.8-32 32-32h64c19.2 0 32 16 32 32v64c0 16-12.8 32-32 32H224c-19.2 0-32-16-32-32z m288 32c-19.2 0-32-16-32-32v-64c0-16 12.8-32 32-32h64c16 0 32 16 32 32v64c0 16-16 32-32 32h-64z m224-32v-64c0-16 16-32 32-32h64c16 0 32 16 32 32v64c0 16-16 32-32 32h-64c-16 0-32-16-32-32z"  horiz-adv-x="1024" />
      
      <glyph glyph-name="angles-down" unicode="&#59454;" d="M556.8-12.799999999999955c-25.6-25.6-64-25.6-89.6 0l-320 320c-25.6 25.6-25.6 64 0 89.6s64 25.6 89.6 0l275.2-275.2 275.2 275.2c25.6 25.6 64 25.6 89.6 0 25.6-25.6 25.6-64 0-89.6l-320-320z m320 704l-320-320c-25.6-25.6-64-25.6-89.6 0l-320 320c-25.6 25.6-25.6 64 0 89.6s64 25.6 89.6 0l275.2-275.2 275.2 275.2c25.6 25.6 64 25.6 89.6 0s25.6-64 0-89.6z"  horiz-adv-x="1024" />
      
      <glyph glyph-name="angles-up" unicode="&#59455;" d="M556.8 780.8c-25.6 25.6-64 25.6-89.6 0l-320-320c-25.6-25.6-25.6-64 0-89.6s64-25.6 89.6 0L512 646.4l275.2-275.2c25.6-25.6 64-25.6 89.6 0 25.6 25.6 25.6 64 0 89.6l-320 320z m320-704l-320 320c-25.6 25.6-64 25.6-89.6 0l-320-320c-25.6-25.6-25.6-64 0-89.6s64-25.6 89.6 0l275.2 275.2 275.2-275.2c25.6-25.6 64-25.6 89.6 0 25.6 25.6 25.6 64 0 89.6z"  horiz-adv-x="1024" />
      
      <glyph glyph-name="unlock" unicode="&#59438;" d="M256 640c0 140.8 115.2 256 256 256 131.2 0 240-99.2 252.8-224 0-6.4-6.4-54.4-44.8-54.4s-51.2 41.6-54.4 51.2C649.6 742.4 585.6 800 512 800c-89.6 0-160-80-160-179.2V512h457.6c64 0 118.4-57.6 118.4-128v-384c0-70.4-54.4-128-118.4-128H214.4c-64 0-118.4 57.6-118.4 128V384c0 70.4 54.4 128 118.4 128H256V640z m544-224H224c-19.2 0-32-12.8-32-32v-384c0-19.2 12.8-32 32-32h576c19.2 0 32 12.8 32 32V384c0 19.2-12.8 32-32 32z"  horiz-adv-x="1024" />
      
      <glyph glyph-name="magic" unicode="&#59439;" d="M793.6 844.8l179.2-179.2c25.6-25.6 25.6-64 0-89.6L320-76.8c-25.6-25.6-64-22.4-89.6 0l-179.2 179.2c-25.6 25.6-25.6 64 0 89.6L704 844.8c25.6 25.6 64 25.6 89.6 0zM832 326.4l48-96 96-48-96-48-48-96-48 96-96 48 96 48 48 96z m-320 147.2L176 137.6l89.6-89.6L601.6 384 512 473.6z m246.4 246.4l-156.8-156.8 89.6-89.6 156.8 156.8-89.6 89.6zM192 848l48-96 96-48-96-48-48-96-48 96-96 48 96 48 48 96z m262.4 0l28.8-57.6 57.6-28.8-57.6-28.8-28.8-60.8-28.8 57.6-57.6 28.8 57.6 28.8 28.8 60.8z"  horiz-adv-x="1024" />
      
      <glyph glyph-name="share-alt" unicode="&#59440;" d="M798.21118 460.322981c120.84472 0 219.428571 98.583851 219.428572 219.428572S919.055901 896 798.21118 896s-219.428571-98.583851-219.428571-219.428571v-25.440994l-213.068323-108.124224c-38.161491 38.161491-92.223602 60.42236-152.645963 60.42236C98.583851 606.608696 0 508.024845 0 387.180124s98.583851-219.428571 219.428571-219.428571c57.242236 0 111.304348 22.26087 152.645963 60.42236l213.068323-108.124224v-28.621118c0-120.84472 98.583851-219.428571 219.428572-219.428571s219.428571 98.583851 219.428571 219.428571-98.583851 219.428571-219.428571 219.428572c-60.42236 0-111.304348-22.26087-152.645963-60.42236l-213.068323 108.124223c0 9.540373 3.180124 19.080745 3.180124 28.621118 0 9.540373 0 19.080745-3.180124 28.621118l213.068323 108.124224c34.981366-41.341615 89.043478-63.602484 146.285714-63.602485z"  horiz-adv-x="1030" />
      
      <glyph glyph-name="sort3" unicode="&#59441;" d="M470.4 784c22.4 22.4 57.6 22.4 80 0l230.4-236.8c16-16 22.4-41.6 12.8-64-9.6-22.4-28.8-35.2-54.4-35.2H281.6c-22.4 0-44.8 16-54.4 35.2-9.6 22.4-3.2 48 12.8 64l230.4 236.8z m0-800L240 224c-16 16-22.4 41.6-12.8 64 9.6 22.4 28.8 35.2 54.4 35.2h460.8c22.4 0 44.8-16 54.4-35.2 9.6-22.4 3.2-48-12.8-64l-230.4-236.8c-22.4-25.6-60.8-25.6-83.2-3.2z"  horiz-adv-x="1024" />
      
      <glyph glyph-name="image" unicode="&#59437;" d="M896 640v-512c0-19.2-12.8-32-32-32H160c-19.2 0-32 12.8-32 32V640c0 19.2 12.8 32 32 32h704c19.2 0 32-12.8 32-32zM32 672v-576c0-54.4 41.6-96 96-96h768c54.4 0 96 41.6 96 96V672c0 54.4-41.6 96-96 96H128C73.6 768 32 726.4 32 672z m563.2-224c12.8 0 25.6-6.4 32-16L864 160H160l140.8 172.8c6.4 9.6 19.2 16 32 16s25.6-6.4 32-16l51.2-67.2 144 169.6c9.6 6.4 22.4 12.8 35.2 12.8zM300.8 620.8c32 0 60.8-16 76.8-44.8 16-28.8 16-60.8 0-89.6-16-28.8-44.8-44.8-76.8-44.8-51.2 0-89.6 41.6-89.6 89.6s41.6 89.6 89.6 89.6z"  horiz-adv-x="1024" />
      
      <glyph glyph-name="folder" unicode="&#59436;" d="M448 672H160c-16 0-32-9.6-32-32v-512c0-16 16-32 32-32h704c16 0 32 16 32 32V528c0 16-16 28.8-32 28.8h-304c-9.6 0-16 6.4-19.2 9.6L448 672z m144-22.4H896c54.4 0 96-41.6 96-96V96c0-54.4-41.6-96-96-96H128c-54.4 0-96 41.6-96 96V672c0 54.4 41.6 96 96 96h345.6c9.6 0 16-6.4 22.4-9.6l96-108.8z"  horiz-adv-x="1024" />
      
      <glyph glyph-name="duplicate-page" unicode="&#59434;" d="M560 832c19.2 0 48-16 48-48S579.2 736 560 736h-384c-9.6 0-16-6.4-16-16v-672c0-9.6 6.4-16 16-16h672c9.6 0 16 6.4 16 16v384c0 16 6.4 48 48 48s48-32 48-48V0c0-35.2-28.8-64-64-64H128c-35.2 0-64 28.8-64 64V768c0 35.2 28.8 64 64 64h432z m348.8 25.6c9.6 9.6 28.8 9.6 38.4 0l38.4-38.4c9.6-9.6 9.6-28.8 0-38.4L428.8 224 320 192l32 108.8L908.8 857.6z"  horiz-adv-x="1024" />
      
      <glyph glyph-name="move-to" unicode="&#59435;" d="M0-3.2V192c0 137.6 112 246.4 246.4 249.6l601.6 3.2-294.4 294.4c-19.2 19.2-19.2 51.2 0 73.6 22.4 19.2 54.4 19.2 73.6 0L992 444.8c28.8-28.8 32-80 0-108.8L627.2-32c-19.2-19.2-51.2-19.2-73.6 0-19.2 19.2-19.2 51.2 0 73.6l300.8 300.8-595.2-3.2c-89.6 0-160-70.4-160-160v-182.4c0-28.8-22.4-51.2-51.2-51.2-25.6 0-48 25.6-48 51.2z"  horiz-adv-x="1024" />
      
      <glyph glyph-name="open-in-new-tab" unicode="&#58912;" d="M102.4 48L784 729.6H339.2C310.4 729.6 288 755.2 288 780.8S310.4 832 339.2 832h544C924.8 832 960 800 960 755.2v-547.2c0-28.8-22.4-51.2-51.2-51.2-28.8 0-51.2 22.4-51.2 51.2V662.4L176-25.600000000000023c-19.2-22.4-54.4-22.4-73.6 0-22.4 19.2-22.4 54.4 0 73.6z"  horiz-adv-x="1024" />
      
      <glyph glyph-name="link" unicode="&#58911;" d="M614.4 489.6l35.2-35.2-67.2-67.2-35.2 35.2c-67.2 67.2-176 70.4-246.4 9.6l-6.4-6.4-147.2-147.2c-35.2-35.2-54.4-80-54.4-128s19.2-92.8 54.4-128l3.2-3.2c35.2-35.2 80-54.4 128-54.4s92.8 19.2 128 54.4l73.6 73.6 6.4 6.4 28.8 35.2 73.6-57.6-28.8-35.2-12.8-12.8-73.6-73.6c-51.2-51.2-121.6-80-192-80-73.6 0-144 28.8-195.2 80l-3.2 3.2C28.8 6.399999999999977 0 76.79999999999995 0 150.39999999999998s28.8 144 80 195.2l147.2 147.2c3.2 3.2 9.6 6.4 12.8 12.8 108.8 92.8 272 86.4 374.4-16zM745.6 896c73.6 0 144-28.8 195.2-80l3.2-3.2c51.2-51.2 80-121.6 80-195.2s-28.8-144-80-195.2L796.8 275.20000000000005c-3.2-3.2-9.6-6.4-12.8-12.8-51.2-44.8-115.2-67.2-182.4-67.2-73.6 0-140.8 28.8-192 80l-35.2 35.2 67.2 67.2 35.2-35.2c67.2-67.2 176-70.4 246.4-9.6l6.4 6.4 3.2 3.2L880 489.6c35.2 35.2 54.4 80 54.4 128s-19.2 92.8-54.4 128l-3.2 3.2c-35.2 35.2-80 54.4-128 54.4s-92.8-19.2-128-54.4l-73.6-73.6-6.4-6.4-28.8-35.2-73.6 57.6 28.8 35.2 12.8 12.8 73.6 73.6C604.8 867.2 675.2 896 745.6 896z"  horiz-adv-x="1024" />
      
      <glyph glyph-name="files2" unicode="&#59432;" d="M768-96H256c-73.6 0-128 57.6-128 131.2V732.8C128 806.4 182.4 864 256 864h297.6c12.8 0 22.4-3.2 28.8-12.8l297.6-304c9.6-9.6 12.8-16 12.8-32v-480C896-38.4 841.6-96 768-96zM265.6 768C240 768 224 752 224 726.4v-681.6c0-28.8 16-44.8 41.6-44.8h492.8c25.6 0 41.6 16 41.6 41.6V496L537.6 768H265.6zM822.4 448h-297.6c-25.6 0-41.6 16-41.6 41.6V790.4c-3.2 25.6 12.8 41.6 38.4 41.6s41.6-16 41.6-41.6v-256h256c25.6 0 41.6-16 41.6-41.6s-12.8-44.8-38.4-44.8zM368 352h288c25.6 0 48-22.4 48-48s-22.4-48-48-48h-288c-25.6 0-48 22.4-48 48s22.4 48 48 48zM368 192h288c25.6 0 48-22.4 48-48s-22.4-48-48-48h-288c-25.6 0-48 22.4-48 48s22.4 48 48 48z"  horiz-adv-x="1024" />
      
      <glyph glyph-name="file" unicode="&#59433;" d="M768-96H256c-73.6 0-128 57.6-128 131.2V732.8C128 806.4 182.4 864 256 864h297.6c12.8 0 22.4-3.2 28.8-12.8l297.6-304c9.6-9.6 12.8-16 12.8-32v-480C896-38.4 841.6-96 768-96zM265.6 768C240 768 224 752 224 726.4v-681.6c0-28.8 16-44.8 41.6-44.8h492.8c25.6 0 41.6 16 41.6 41.6V496L537.6 768H265.6zM822.4 448h-297.6c-25.6 0-41.6 16-41.6 41.6V790.4c-3.2 25.6 12.8 41.6 38.4 41.6s41.6-16 41.6-41.6v-256h256c25.6 0 41.6-16 41.6-41.6s-12.8-44.8-38.4-44.8z"  horiz-adv-x="1024" />
      
      <glyph glyph-name="monitor" unicode="&#59431;" d="M617.6 9.600000000000023c0-28.8-9.6-54.4-32-73.6-19.2-19.2-44.8-32-73.6-32s-54.4 9.6-73.6 32c-19.2 19.2-32 48-32 73.6h211.2zM512 755.2c28.8 0 51.2-22.4 51.2-54.4v-32c118.4-25.6 208-131.2 208-259.2v-41.6c0-76.8 25.6-147.2 70.4-208l25.6-32c9.6-12.8 12.8-28.8 3.2-41.6-6.4-12.8-19.2-22.4-35.2-22.4H185.6c-16 0-28.8 9.6-35.2 22.4-6.4 12.8-3.2 28.8 3.2 41.6l25.6 32c44.8 57.6 70.4 131.2 70.4 208v41.6c0 128 89.6 236.8 208 259.2v32c3.2 28.8 25.6 54.4 54.4 54.4z m0-160c-99.2 0-182.4-83.2-182.4-185.6v-41.6c0-80-22.4-156.8-64-224h492.8c-41.6 67.2-64 144-64 224v41.6c0 102.4-83.2 185.6-182.4 185.6z m416 57.6c22.4 9.6 51.2 0 60.8-22.4s0-51.2-22.4-60.8l-108.8-51.2c-22.4-9.6-51.2 0-60.8 22.4-9.6 22.4 0 51.2 22.4 60.8L928 652.8z m-832 32l108.8-51.2c22.4-9.6 32-38.4 22.4-60.8-9.6-22.4-38.4-32-60.8-22.4L57.6 601.6c-22.4 9.6-32 38.4-22.4 60.8 12.8 22.4 38.4 32 60.8 22.4z m160 160l70.4-99.2c16-19.2 9.6-48-9.6-64s-51.2-9.6-64 9.6L182.4 793.6c-16 19.2-9.6 48 9.6 60.8s51.2 9.6 64-9.6z m480 0c16 19.2 41.6 25.6 64 9.6 19.2-16 25.6-41.6 9.6-64l-70.4-99.2c-16-19.2-41.6-25.6-64-9.6-19.2 16-25.6 41.6-9.6 64L736 844.8z"  horiz-adv-x="1024" />
      
      <glyph glyph-name="star-empty" unicode="&#59429;" d="M512 864c16 0 32-9.6 38.4-25.6l124.8-256 278.4-41.6c16-3.2 28.8-12.8 35.2-28.8s0-32-9.6-44.8l-201.6-201.6 48-281.6c3.2-16-3.2-32-19.2-41.6-12.8-9.6-32-9.6-44.8-3.2L512 70.39999999999998 262.4-64c-16-6.4-32-6.4-44.8 3.2-12.8 9.6-19.2 25.6-19.2 41.6l48 281.6-201.6 201.6c-12.8 16-16 32-9.6 48s19.2 25.6 35.2 28.8l278.4 41.6 124.8 256c6.4 16 22.4 25.6 38.4 25.6z m0-144l-96-198.4c-6.4-12.8-19.2-22.4-32-25.6l-214.4-32 156.8-153.6c9.6-9.6 16-25.6 12.8-38.4l-38.4-217.6 192 102.4c12.8 6.4 28.8 6.4 41.6 0l192-102.4-35.2 217.6c-3.2 12.8 3.2 28.8 12.8 38.4l156.8 153.6-214.4 32c-12.8 3.2-25.6 9.6-32 25.6L512 720z"  horiz-adv-x="1024" />
      
      <glyph glyph-name="star" unicode="&#59430;" d="M512 864c16 0 32-9.6 38.4-25.6l124.8-256 278.4-41.6c16-3.2 28.8-12.8 35.2-28.8s0-32-9.6-44.8l-201.6-201.6 48-281.6c3.2-16-3.2-32-19.2-41.6-12.8-9.6-32-9.6-44.8-3.2L512 70.39999999999998 262.4-64c-16-6.4-32-6.4-44.8 3.2-12.8 9.6-19.2 25.6-19.2 41.6l48 281.6-201.6 201.6c-12.8 16-16 32-9.6 48s19.2 25.6 35.2 28.8l278.4 41.6 124.8 256c6.4 16 22.4 25.6 38.4 25.6z"  horiz-adv-x="1024" />
      
      <glyph glyph-name="down" unicode="&#59428;" d="M147.2 588.8c22.4 22.4 60.8 22.4 86.4 0l281.6-281.6 281.6 281.6c22.4 22.4 60.8 22.4 86.4 0 22.4-22.4 22.4-64 0-86.4L553.6 179.20000000000005c-22.4-22.4-60.8-22.4-86.4 0l-320 323.2c-25.6 25.6-25.6 64 0 86.4z"  horiz-adv-x="1024" />
      
      <glyph glyph-name="new-page" unicode="&#59427;" d="M560 864c19.2 0 48-16 48-48S579.2 768 560 768H160c-19.2 0-32-12.8-32-32v-704c0-19.2 12.8-32 32-32h704c19.2 0 32 12.8 32 32V432c0 16 6.4 48 48 48s48-32 48-48V0c0-54.4-41.6-96-96-96H128c-54.4 0-96 41.6-96 96V768c0 54.4 41.6 96 96 96h432z m179.2-124.8l140.8-147.2-348.8-348.8c-12.8-12.8-28.8-22.4-44.8-28.8-80-28.8-124.8-44.8-134.4-44.8-12.8 0-25.6 0-32 6.4-9.6 6.4-9.6 22.4-6.4 32 0 6.4 12.8 44.8 32 118.4 6.4 22.4 19.2 41.6 35.2 57.6L739.2 739.2z m92.8 96C870.4 873.6 934.4 870.4 969.6 832c38.4-41.6 38.4-105.6 0-147.2l-38.4-38.4-144 140.8L832 835.2z"  horiz-adv-x="1024" />
      
      <glyph glyph-name="upload-files" unicode="&#59425;" d="M160 192v-160h704v160h96v-192c0-35.2-25.6-60.8-57.6-64H128c-35.2 0-64 28.8-64 64v192h96zM518.4 832l278.4-268.8-80-76.8-156.8 150.4v-553.6h-96V624L320 486.4l-80 76.8L518.4 832z"  horiz-adv-x="1024" />
      
      <glyph glyph-name="share" unicode="&#59424;" d="M800 832c-70.4 0-128-54.4-128-128s57.6-128 128-128 128 54.4 128 128-57.6 128-128 128zM224 512c-70.4 0-128-54.4-128-128s57.6-128 128-128 128 54.4 128 128-57.6 128-128 128z m576-320c-70.4 0-128-54.4-128-128s57.6-128 128-128 128 54.4 128 128-60.8 128-128 128z m-425.6 307.2l217.6 134.4 48-83.2-217.6-134.4-48 83.2z m60.8-169.6l220.8-131.2-48-80-220.8 131.2 48 80z"  horiz-adv-x="1024" />
      
      <glyph glyph-name="rename" unicode="&#58972;" d="M796.8 873.6L928 742.4c32-32 32-83.2 0-112L336 32l-265.6-19.2 16 262.4L681.6 873.6c28.8 28.8 86.4 28.8 115.2 0z m-204.8-227.2L182.4 233.6l-6.4-115.2 118.4 9.6L704 537.6l-112 108.8z m147.2 147.2l-80-80L768 604.8l80 80-108.8 108.8zM976-128h-928C22.4-128 0-105.6 0-80S22.4-32 48-32h928c25.6 0 48-22.4 48-48s-22.4-48-48-48z"  horiz-adv-x="1024" />
      
      <glyph glyph-name="close" unicode="&#58971;" d="M873.813333 745.813333c20.48-20.48 20.48-51.2 0-71.68L583.68 384l290.133333-286.72c17.066667-17.066667 20.48-47.786667 3.413334-68.266667l-3.413334-3.413333c-20.48-20.48-51.2-20.48-71.68 0L512 312.32l-290.133333-290.133333c-20.48-20.48-51.2-20.48-71.68 0-20.48 20.48-20.48 51.2 0 71.68l290.133333 286.72-290.133333 290.133333c-17.066667 20.48-17.066667 51.2-3.413334 68.266667l3.413334 3.413333c20.48 20.48 54.613333 20.48 75.093333 3.413333l290.133333-290.133333 286.72 290.133333c17.066667 17.066667 51.2 17.066667 71.68 0z"  horiz-adv-x="1024" />
      
      <glyph glyph-name="new" unicode="&#59414;" d="M560 832v-400H960v-96H560V-64h-96V336H64v96h400V832h96z"  horiz-adv-x="1024" />
      
      <glyph glyph-name="drop-down" unicode="&#59423;" d="M566.4 89.6l374.4 470.4c44.8 54.4 9.6 144-54.4 144H137.6c-64 0-99.2-86.4-54.4-144l374.4-470.4c28.8-35.2 80-35.2 108.8 0z"  horiz-adv-x="1024" />
      
      <glyph glyph-name="tag" unicode="&#59426;" d="M521.353986 860.33363l466.979644-466.979644c22.389435-22.389435 35.183398-51.175851 35.183398-83.160758s-12.793963-60.771324-35.183398-83.160759l-323.047562-319.849071c-22.389435-22.389435-51.175851-35.183398-79.962268-35.183398-31.984907 0-60.771324 12.793963-83.160758 35.183398L35.183398 374.163042c-25.587926 25.587926-38.381889 60.771324-31.984907 95.954721l31.984907 291.062655c6.396981 54.374342 47.977361 95.954721 102.351703 102.351703l291.062654 31.984907c31.984907 3.198491 67.168305-9.595472 92.756231-35.183398zM438.193228 799.562307L127.939628 764.378909l-35.183397-303.856618L582.12531-32.045279l342.238506 339.040016L438.193228 799.562307z m31.984907-169.520008c57.572833-57.572833 57.572833-147.130573 0-204.703406-25.587926-25.587926-63.969814-41.580379-102.351703-41.580379s-73.565286 12.793963-102.351703 41.580379c-57.572833 57.572833-57.572833 147.130573 0 204.703406s150.329063 54.374342 204.703406 0zM367.826432 575.667957c-9.595472 0-25.587926-3.198491-35.183398-12.793963-19.190944-19.190944-19.190944-47.977361 0-67.168305 19.190944-19.190944 47.977361-19.190944 67.168305 0 19.190944 19.190944 19.190944 47.977361 0 67.168305-9.595472 9.595472-19.190944 12.793963-31.984907 12.793963z"  horiz-adv-x="1024" />
      
      <glyph glyph-name="grid-view" unicode="&#59411;" d="M428.8 864c28.8 0 51.2-22.4 51.2-51.2v-348.8c0-28.8-22.4-51.2-51.2-51.2H83.2C54.4 416 32 438.4 32 467.2V812.8C32 841.6 54.4 864 83.2 864h345.6zM384 768H128v-256h256V768zM940.8 864c28.8 0 51.2-22.4 51.2-51.2v-348.8c0-28.8-22.4-51.2-51.2-51.2H595.2c-28.8 0-51.2 22.4-51.2 51.2V812.8c0 28.8 22.4 51.2 51.2 51.2h345.6zM896 768h-256v-256h256V768zM940.8 352c28.8 0 51.2-22.4 51.2-51.2v-348.8c0-28.8-22.4-51.2-51.2-51.2H595.2c-28.8 0-51.2 22.4-51.2 51.2V300.8c0 28.8 22.4 51.2 51.2 51.2h345.6zM896 256h-256v-256h256v256zM428.8 352c28.8 0 51.2-22.4 51.2-51.2v-348.8c0-28.8-22.4-51.2-51.2-51.2H83.2C54.4-96 32-73.6 32-44.8V300.8c0 28.8 22.4 51.2 51.2 51.2h345.6zM384 256H128v-256h256v256z"  horiz-adv-x="1024" />
      
      <glyph glyph-name="download1" unicode="&#59412;" d="M160 192v-160h704v160h96v-192c0-35.2-25.6-60.8-57.6-64H128c-35.2 0-64 28.8-64 64v192h96zM560 832v-553.6l156.8 150.4 80-76.8-278.4-268.8L240 352l80 76.8 144-137.6V832h96z"  horiz-adv-x="1024" />
      
      <glyph glyph-name="more" unicode="&#59413;" d="M768 384c0-54.4 41.6-96 96-96s96 41.6 96 96-41.6 96-96 96-96-41.6-96-96z m-352 0c0-54.4 41.6-96 96-96s96 41.6 96 96-41.6 96-96 96-96-41.6-96-96z m-352-6.4c0-54.4 41.6-96 96-96s96 41.6 96 96-41.6 96-96 96-96-44.8-96-96z"  horiz-adv-x="1024" />
      
      <glyph glyph-name="move1" unicode="&#59415;" d="M928 736h-307.2c-32 35.2-54.4 57.6-70.4 67.2-35.2 25.6-70.4 28.8-86.4 28.8H96c-35.2 0-64-28.8-64-64v-768c0-35.2 28.8-64 64-64h832c35.2 0 64 28.8 64 64V672c0 35.2-28.8 64-64 64z m-32-704H128V640h768v-608zM288 384h336l-134.4 134.4 67.2 67.2 249.6-249.6-249.6-249.6-67.2 67.2 134.4 134.4H288v96z"  horiz-adv-x="1024" />
      
      <glyph glyph-name="side-bar" unicode="&#59416;" d="M928 864c35.2 0 64-28.8 64-64v-832c0-35.2-28.8-64-64-64H96c-35.2 0-64 28.8-64 64V800c0 35.2 28.8 64 64 64h832zM416 768H160c-19.2 0-32-12.8-32-32v-704c0-19.2 12.8-32 32-32h256V768z m448 0H512v-768h352c19.2 0 32 12.8 32 32V736c0 19.2-12.8 32-32 32zM304 320c25.6 0 48-22.4 48-48S329.6 224 304 224h-64c-25.6 0-48 22.4-48 48S214.4 320 240 320h64z m0 192c25.6 0 48-22.4 48-48S329.6 416 304 416h-64c-25.6 0-48 22.4-48 48S214.4 512 240 512h64z m0 192c25.6 0 48-22.4 48-48S329.6 608 304 608h-64C214.4 608 192 630.4 192 656S214.4 704 240 704h64z"  horiz-adv-x="1024" />
      
      <glyph glyph-name="delete1" unicode="&#59417;" d="M672 864c35.2 0 64-28.8 64-64v-96h240c9.6 0 16-6.4 16-16v-64c0-9.6-6.4-16-16-16H864v-640c0-35.2-28.8-64-64-64H224c-35.2 0-64 28.8-64 64V608H48c-9.6 0-16 6.4-16 16v64c0 9.6 6.4 16 16 16H288V800c0 35.2 28.8 64 64 64h320z m96-256H256v-576c0-19.2 12.8-32 32-32h448c19.2 0 32 12.8 32 32V608z m-121.6-128c6.4 0 9.6-3.2 9.6-9.6v-329.6c0-9.6-3.2-9.6-9.6-9.6h-76.8c-6.4 0-9.6 3.2-9.6 9.6V470.4c0 9.6 3.2 9.6 9.6 9.6h76.8z m-192 0c6.4 0 9.6-3.2 9.6-9.6v-329.6c0-9.6-3.2-9.6-9.6-9.6h-76.8c-6.4 0-9.6 3.2-9.6 9.6V470.4c0 9.6 3.2 9.6 9.6 9.6h76.8zM640 768h-256v-64h256V768z"  horiz-adv-x="1024" />
      
      <glyph glyph-name="more-vertical" unicode="&#59418;" d="M512 640c54.4 0 96 41.6 96 96s-41.6 96-96 96-96-41.6-96-96 41.6-96 96-96z m0-352c54.4 0 96 41.6 96 96s-41.6 96-96 96-96-41.6-96-96 41.6-96 96-96z m6.4-352c54.4 0 96 41.6 96 96s-41.6 96-96 96-96-41.6-96-96 44.8-96 96-96z"  horiz-adv-x="1024" />
      
      <glyph glyph-name="list-view" unicode="&#59419;" d="M304 768h672c25.6 0 48-22.4 48-48S1001.6 672 976 672h-672C278.4 672 256 694.4 256 720S278.4 768 304 768z m-224 32C124.8 800 160 764.8 160 720S124.8 640 80 640 0 675.2 0 720 35.2 800 80 800z m224-368h672c25.6 0 48-22.4 48-48s-22.4-48-48-48h-672c-25.6 0-48 22.4-48 48s22.4 48 48 48z m-224 32C124.8 464 160 428.8 160 384s-35.2-80-80-80S0 339.20000000000005 0 384s35.2 80 80 80z m224-368h672c25.6 0 48-22.4 48-48s-22.4-48-48-48h-672c-25.6 0-48 22.4-48 48S278.4 96 304 96z m-224 32C124.8 128 160 92.79999999999995 160 48S124.8-32 80-32 0 3.2000000000000455 0 48 35.2 128 80 128z"  horiz-adv-x="1024" />
      
      <glyph glyph-name="info" unicode="&#59420;" d="M512 896c281.6 0 512-230.4 512-512s-230.4-512-512-512S0 102.4 0 384 230.4 896 512 896z m0-96C281.6 800 96 614.4 96 384s185.6-416 416-416 416 185.6 416 416c0 108.8-44.8 217.6-121.6 294.4S620.8 800 512 800z m32-352c19.2 0 32-12.8 32-32v-256c0-19.2-12.8-32-32-32h-64c-19.2 0-32 12.8-32 32v256c0 19.2 12.8 32 32 32h64z m-19.2 192c9.6 0 16-3.2 22.4-9.6 3.2-3.2 6.4-6.4 9.6-6.4 25.6-25.6 25.6-64 0-89.6-3.2-3.2-6.4-6.4-9.6-6.4-6.4-3.2-16-6.4-22.4-9.6h-25.6c-9.6 0-16 3.2-22.4 9.6-3.2 3.2-6.4 6.4-9.6 6.4-25.6 25.6-25.6 64 0 89.6 3.2 3.2 6.4 6.4 9.6 6.4 6.4 3.2 16 6.4 22.4 9.6h25.6z"  horiz-adv-x="1024" />
      
      <glyph glyph-name="copy1" unicode="&#59421;" d="M704 640c35.2 0 64-28.8 64-64v-352h96c16 0 28.8 12.8 32 28.8V736c0 19.2-12.8 32-32 32H384c-19.2 0-32-12.8-32-32v-96h352z m-44.8-96H140.8c-6.4 0-12.8-6.4-12.8-12.8v-518.4c0-6.4 6.4-12.8 12.8-12.8h518.4c9.6 0 12.8 6.4 12.8 12.8V531.2c0 6.4-6.4 12.8-12.8 12.8zM256 800c0 35.2 28.8 64 64 64h608c35.2 0 64-28.8 64-64v-608c0-35.2-28.8-64-64-64h-160v-160c0-35.2-25.6-60.8-60.8-64H96c-35.2 0-64 28.8-64 64V576c0 35.2 28.8 64 64 64h160V800z"  horiz-adv-x="1024" />
      
      <glyph glyph-name="trash" unicode="&#59422;" d="M601.8512 54.4V96c0 19.2-12.8 32-32 32s-28.8-6.4-38.4-12.8l-102.4-102.4c60.8-73.6 96-112 102.4-118.4 9.6-9.6 19.2-12.8 35.2-12.8 12.8 0 35.2 9.6 35.2 28.8v44.8h355.2c38.4 0 67.2 28.8 67.2 67.2 0 12.8-3.2 22.4-9.6 32L848.2512 352l-12.8-73.6-70.4 25.6 134.4-252.8h-297.6zM272.2512 320l35.2-19.2c12.8-6.4 35.2-3.2 44.8 9.6 9.6 12.8 9.6 25.6 6.4 41.6-3.2 9.6-16 57.6-38.4 137.6l-153.6-28.8c-16-3.2-28.8-9.6-32-22.4s-3.2-35.2 16-44.8l38.4-22.4L9.8512 64c-19.2-38.4-9.6-76.8 22.4-96 9.6-6.4 22.4-9.6 32-9.6l342.4-6.4-54.4 51.2 57.6 48-284.8 9.6L272.2512 320z m396.8 153.6l-35.2-22.4c-16-9.6-22.4-32-12.8-48 3.2-6.4 16-16 28.8-19.2l147.2-38.4 51.2 137.6c6.4 16 9.6 38.4-9.6 57.6-16 12.8-35.2 6.4-41.6 3.2l-41.6-22.4L576.2512 832c-19.2 35.2-57.6 48-89.6 28.8-9.6-6.4-19.2-16-25.6-25.6l-176-294.4 70.4 25.6 12.8-73.6L518.6512 736l150.4-262.4z"  horiz-adv-x="1025" />
      
      <glyph glyph-name="history" unicode="&#58970;" d="M512 864C350 864 209 786 122 663V744c0 24-21 45-45 45S32 768 32 744v-180c0-24 21-45 45-45H272c15 0 33 9 39 21 9 15 9 33 0 45-6 15-24 24-39 24H194C263 708 380 774 512 774c216 0 390-174 390-390s-174-390-390-390c-183 0-333 123-378 291-6 18-21 30-42 30-12 0-24-6-33-12s-12-21-12-33c0-3 0-9 3-12v-6C107 51 293-96 512-96c264 0 480 216 480 480S776 864 512 864z m0-201c-12 0-24-6-33-12-9-9-12-21-12-33v-270c0-12 6-24 12-33 9-9 21-12 33-12h195c15 0 30 9 39 21s9 30 0 45-24 24-39 21h-150V618c0 12-6 24-12 33-9 6-21 12-33 12z"  horiz-adv-x="1024" />
      
      <glyph glyph-name="clients" unicode="&#59407;" d="M960 832c19.2 0 32-12.8 32-32v-640c0-19.2-12.8-32-32-32H576v-28.8c0-35.2 92.8-70.4 131.2-70.4h44.8V-64h-480v89.6h44.8c35.2 0 131.2 35.2 131.2 70.4v28.8H64c-19.2 0-32 12.8-32 32V800c0 19.2 12.8 32 32 32h896z m-64-96H128v-512h768V736z"  horiz-adv-x="1024" />
      
      <glyph glyph-name="about" unicode="&#59408;" d="M512 864c265.6 0 480-214.4 480-480s-214.4-480-480-480S32 118.4 32 384 246.4 864 512 864z m12.8-384h-25.6c-28.8 0-51.2-22.4-51.2-48v-288c0-25.6 22.4-48 51.2-48h25.6c28.8 0 51.2 22.4 51.2 48v288c0 25.6-22.4 48-51.2 48zM512 672c-35.2 0-64-28.8-64-64s28.8-64 64-64 64 28.8 64 64-28.8 64-64 64z"  horiz-adv-x="1024" />
      
      <glyph glyph-name="terms" unicode="&#59409;" d="M768 832c35.2 0 64-28.8 64-64v-121.6L448 272v-166.4h153.6l230.4 224V0c0-35.2-28.8-64-64-64H128c-35.2 0-64 28.8-64 64V768c0 35.2 28.8 64 64 64h640zM275.2 217.6h-3.2c-25.6-3.2-57.6-25.6-96-70.4-25.6-32-44.8-60.8-44.8-64-6.4-6.4-3.2-19.2 6.4-22.4 3.2 0 3.2-3.2 6.4-3.2 6.4 0 16 3.2 19.2 9.6 35.2 54.4 86.4 115.2 112 118.4h3.2s6.4-6.4 0-32v-3.2c-3.2-12.8-12.8-54.4 19.2-67.2h6.4c28.8-3.2 44.8 19.2 57.6 32 0 0 0 3.2 3.2 3.2l6.4 6.4h3.2c-6.4-16-3.2-35.2 9.6-44.8 6.4-6.4 19.2-9.6 28.8-9.6 25.6 3.2 35.2 28.8 38.4 38.4 6.4 16 0 22.4-6.4 25.6-9.6 3.2-19.2 0-25.6-6.4-3.2-3.2-6.4-6.4-6.4-9.6 3.2 12.8 6.4 35.2-12.8 48-32 16-57.6-19.2-67.2-28.8-6.4-9.6-9.6-12.8-12.8-12.8h-3.2c0 3.2-3.2 9.6 0 22.4v3.2c3.2 16 9.6 38.4-6.4 57.6-6.4 9.6-16 12.8-28.8 12.8l-6.4-3.2z m515.2 304c6.4 6.4 16 6.4 19.2 3.2l54.4-54.4c3.2-3.2 3.2-12.8-3.2-19.2l-281.6-281.6c-6.4-6.4-16-6.4-19.2-3.2l-73.6-19.2 19.2 73.6c-3.2 3.2-3.2 12.8 3.2 19.2l281.6 281.6zM480 480H224v-96h256v96z m403.2 134.4c6.4 6.4 16 6.4 22.4 0l51.2-51.2c6.4-6.4 6.4-16 0-22.4L896 483.2c-6.4-6.4-16-6.4-22.4 0l-51.2 51.2c-6.4 6.4-6.4 16 0 22.4l60.8 57.6zM672 672H224v-96h448V672z"  horiz-adv-x="1024" />
      
      <glyph glyph-name="help" unicode="&#59410;" d="M512 864c262.4 0 480-217.6 480-480s-217.6-480-480-480S32 121.6 32 384 249.6 864 512 864z m32-649.6h-64c-9.6 0-16-6.4-16-16v-67.2c0-9.6 6.4-16 16-16h64c9.6 0 16 6.4 16 16v67.2c0 6.4-6.4 16-16 16zM512 652.8c-44.8 0-83.2-16-115.2-38.4-28.8-25.6-48-64-51.2-108.8 0-6.4 0-9.6 3.2-12.8s9.6-6.4 12.8-6.4h64c9.6 0 16 6.4 16 16 9.6 51.2 28.8 73.6 73.6 73.6 22.4 0 38.4-6.4 51.2-19.2s19.2-28.8 19.2-48c0-9.6-3.2-22.4-6.4-25.6s-12.8-19.2-41.6-41.6c-25.6-22.4-44.8-44.8-54.4-64-9.6-22.4-16-51.2-16-92.8 0-9.6 6.4-16 16-16h57.6c9.6 0 16 6.4 16 16 0 32 3.2 51.2 6.4 57.6s16 22.4 44.8 44.8c25.6 25.6 48 44.8 57.6 64 9.6 22.4 16 41.6 16 67.2 3.2 28.8-16 70.4-44.8 96-35.2 25.6-73.6 38.4-124.8 38.4z"  horiz-adv-x="1024" />
      
      <glyph glyph-name="invite-visitors" unicode="&#59406;" d="M384 288c214.4 0 384-118.4 384-262.4 0-102.4-48-121.6-374.4-121.6h-25.6C44.8-96 0-76.8 0 25.6 0 172.8 169.6 288 384 288zM864 630.4v-166.4h160v-96h-160v-169.6h-86.4v169.6h-156.8v96h156.8V630.4H864zM384 864c108.8 0 195.2-96 195.2-211.2s-73.6-313.6-195.2-313.6-195.2 195.2-195.2 313.6S278.4 864 384 864z"  horiz-adv-x="1024" />
      
      <glyph glyph-name="department" unicode="&#59405;" d="M790.4 864c25.6 0 48-9.6 67.2-25.6 19.2-19.2 28.8-41.6 28.8-67.2v-800H928c16 0 32-12.8 32-32 0-16-12.8-38.4-32-38.4L96-96c-16 0-32 19.2-32 38.4s12.8 32 32 32h44.8V771.2c0 25.6 9.6 48 28.8 67.2S211.2 864 236.8 864h553.6zM576 160h-128v-192h128v192z m-160 192H288v-128h128v128z m320 0h-128v-128h128v128z m-320 192H288v-128h128v128z m320 0h-128v-128h128v128z m0 192h-128v-128h128V736zM416 736H288v-128h128V736z"  horiz-adv-x="1024" />
      
      <glyph glyph-name="starred" unicode="&#59403;" d="M537.6 816l128-256c3.2-9.6 12.8-12.8 19.2-16l284.8-41.6c22.4-3.2 32-32 16-48L777.6 256c-6.4-6.4-9.6-16-6.4-25.6l48-281.6c3.2-22.4-19.2-38.4-38.4-28.8l-252.8 134.4c-6.4 3.2-16 3.2-25.6 0l-252.8-134.4c-19.2-9.6-44.8 6.4-38.4 28.8l48 281.6c0 9.6 0 19.2-6.4 25.6l-204.8 201.6c-16 16-6.4 44.8 16 48l284.8 41.6c9.6 0 16 6.4 19.2 16l128 256c0 19.2 32 19.2 41.6-3.2z"  horiz-adv-x="1024" />
      
      <glyph glyph-name="devices" unicode="&#59404;" d="M937.6 800c12.8 0 22.4-9.6 22.4-22.4v-611.2c0-12.8-9.6-22.4-22.4-22.4h-300.8v-41.6c0-32 28.8-64 64-64h41.6v-83.2H291.2v83.2h41.6c32 0 64 28.8 64 64v41.6H86.4c-12.8 0-22.4 9.6-22.4 22.4V777.6c0 12.8 9.6 22.4 22.4 22.4h851.2z m-57.6-83.2h-736v-409.6h736V716.8z"  horiz-adv-x="1024" />
      
      <glyph glyph-name="wrench" unicode="&#59400;" d="M796.8 268.8c-9.6 0-22.4 0-28.8-3.2l-230.4 236.8c9.6 25.6 16 57.6 16 86.4 0 137.6-112 246.4-243.2 246.4-19.2-3.2-41.6-19.2-19.2-41.6l38.4-41.6L384 694.4c41.6-64 22.4-147.2-35.2-176l-6.4-6.4c-38.4-25.6-137.6-25.6-179.2 35.2L102.4 630.4C89.6 656 64 630.4 64 608v-22.4c0-137.6 105.6-246.4 243.2-246.4 28.8 0 60.8 3.2 86.4 16l240-249.6v-9.6c0-89.6 73.6-163.2 163.2-163.2S960 6.4 960 96c0 99.2-73.6 172.8-163.2 172.8z m0-246.4c-41.6 0-80 35.2-80 83.2s35.2 83.2 80 83.2c48 0 80-35.2 80-83.2s-32-83.2-80-83.2z"  horiz-adv-x="1024" />
      
      <glyph glyph-name="wiki" unicode="&#59401;" d="M291.2 745.6H896V796.8c0 9.6-16 35.2-28.8 35.2H246.4C179.2 832 128 758.4 128 691.2v-640C128-19.2 179.2-64 246.4-64H864c12.8 0 28.8-3.2 28.8 9.6V576h-128v-304l-64 64-64-64V576H291.2c-48 0-86.4 38.4-86.4 86.4s38.4 83.2 86.4 83.2z"  horiz-adv-x="1024" />
      
      <glyph glyph-name="activities" unicode="&#59402;" d="M300.8 825.6c28.8 12.8 41.6 3.2 41.6-22.4l-12.8-307.2c0-32-22.4-41.6-48-28.8l-48 22.4c-12.8-32-22.4-76.8-22.4-118.4 0-179.2 147.2-323.2 323.2-323.2s320 144 320 323.2S713.6 694.4 531.2 694.4c-28.8 0-57.6 0-86.4-9.6l9.6 140.8c22.4 3.2 48 3.2 76.8 3.2C784 828.8 992 627.2 992 374.4s-208-454.4-460.8-454.4S73.6 124.8 73.6 374.4c0 67.2 12.8 131.2 41.6 188.8l-64 38.4C25.6 617.6 25.6 640 51.2 656l249.6 169.6z m224-265.6v-3.2h41.6c12.8 0 22.4-9.6 22.4-22.4v-204.8l80-160c9.6-12.8 3.2-12.8-3.2-3.2l-166.4 166.4v204.8c0 12.8 9.6 22.4 25.6 22.4z"  horiz-adv-x="1024" />
      
      <glyph glyph-name="share-with-all" unicode="&#59399;" d="M659.2 329.6c118.4-54.4 192-137.6 192-265.6 0-70.4-166.4-102.4-329.6-102.4h-3.2C352-38.39999999999998 185.6-3.2000000000000455 185.6 64c0 128 73.6 211.2 188.8 265.6h3.2c80-57.6 195.2-57.6 281.6 0zM169.6 380.79999999999995c28.8-22.4 73.6-38.4 108.8-38.4-73.6-64-144-147.2-144-249.6 0-3.2 0-9.6 3.2-12.8-73.6 12.8-105.6 32-105.6 67.2 0 99.2 54.4 192 137.6 233.6z m684.8 6.4c83.2-41.6 137.6-134.4 137.6-233.6 0-35.2-25.6-60.8-96-73.6 0 3.2 3.2 9.6 3.2 12.8 0 102.4-60.8 182.4-160 249.6 32 0 83.2 22.4 115.2 44.8zM515.2 800C636.8 800 736 700.8 736 579.2s-99.2-220.8-220.8-220.8H512c-121.6 0-220.8 99.2-220.8 220.8s99.2 220.8 224 220.8zM265.6 710.4h12.8c-25.6-41.6-38.4-92.8-38.4-144 0-70.4 38.4-140.8 89.6-185.6-19.2-6.4-35.2-9.6-54.4-9.6-41.6 0-80 16-112 48s-44.8 73.6-44.8 118.4c3.2 92.8 60.8 172.8 147.2 172.8z m492.8 0c54.4 0 112-38.4 134.4-83.2s19.2-108.8-9.6-160-76.8-86.4-131.2-86.4c-19.2 0-38.4 3.2-54.4 9.6 92.8 76.8 118.4 217.6 48 320h12.8z"  horiz-adv-x="1024" />
      
      <glyph glyph-name="new-group1" unicode="&#59395;" d="M784 416c134.4 0 240-105.6 240-240S918.4-64 784-64 544 41.60000000000002 544 176s105.6 240 240 240z m-284.8-51.2c12.8-6.4 22.4-12.8 32-19.2-32-48-51.2-105.6-51.2-169.6 0-83.2 35.2-160 89.6-217.6-198.4-48-569.6-19.2-569.6 89.6 0 137.6 80 259.2 198.4 316.8 41.6-25.6 92.8-44.8 150.4-44.8s105.6 16 150.4 44.8z m307.2-28.8h-44.8c-9.6 0-16-6.4-16-16v-102.4h-102.4c-9.6 0-16-6.4-16-16v-44.8c0-9.6 6.4-16 16-16h102.4v-102.4c0-9.6 6.4-16 16-16h44.8c9.6 0 16 6.4 16 16v102.4H928c9.6 0 16 6.4 16 16v44.8c0 9.6-6.4 16-16 16h-102.4V320c0 6.4-9.6 16-19.2 16zM700.8 790.4c25.6-9.6 51.2-25.6 70.4-44.8 41.6-38.4 64-92.8 64-150.4 0-25.6-6.4-51.2-16-76.8-3.2-12.8-9.6-25.6-19.2-38.4h-16c-86.4 0-163.2-35.2-220.8-92.8-12.8 0-25.6 3.2-35.2 6.4 16 9.6 51.2 35.2 64 48 32 25.6 64 102.4 64 144s0 128-64 182.4c-12.8 6.4-32 22.4-48 35.2 48 9.6 108.8 6.4 156.8-12.8z m-262.4 25.6c28.8-9.6 54.4-28.8 73.6-48 41.6-41.6 67.2-96 67.2-156.8 0-28.8-6.4-54.4-16-83.2s-28.8-51.2-51.2-70.4c-19.2-19.2-44.8-35.2-73.6-48-54.4-25.6-121.6-25.6-176-3.2-28.8 12.8-51.2 28.8-73.6 48s-41.6 41.6-51.2 70.4c-12.8 25.6-16 54.4-16 83.2s3.2 54.4 16 83.2c9.6 25.6 28.8 51.2 51.2 70.4 19.2 19.2 44.8 35.2 73.6 48 54.4 28.8 121.6 28.8 176 6.4z"  horiz-adv-x="1024" />
      
      <glyph glyph-name="share-with-me" unicode="&#59396;" d="M723.2 384c131.2 0 240-108.8 240-240S857.6-96 723.2-96s-240 108.8-240 240 108.8 240 240 240z m-422.4-25.6c48-28.8 105.6-48 163.2-51.2-32-48-48-105.6-48-166.4 0-96 44.8-182.4 115.2-240C307.2-102.39999999999998 64-60.799999999999955 64 32c0 153.6 96 262.4 236.8 326.4z m518.4-278.4c-25.6 0-48-22.4-48-48s19.2-48 48-48c25.6 0 48 22.4 48 48s-22.4 48-48 48z m-144 38.4c0-9.6-3.2-16-9.6-22.4l102.4-60.8c3.2 12.8 6.4 19.2 12.8 25.6l-105.6 57.6z m-48 57.6c-25.6 0-48-22.4-48-48s22.4-48 48-48 48 22.4 48 48-22.4 48-48 48z m166.4 112c-28.8 0-48-22.4-48-48 0-6.4 0-9.6 3.2-16l-89.6-57.6c6.4-6.4 12.8-16 16-25.6l89.6 60.8c-9.6 6.4-12.8 9.6-16 19.2l3.2-3.2c9.6-16 25.6-25.6 41.6-25.6 25.6 0 48 22.4 48 48s-22.4 48-48 48z m-224 556.8c32-12.8 57.6-28.8 80-51.2 44.8-44.8 73.6-108.8 73.6-169.6 0-28.8-6.4-60.8-19.2-89.6-12.8-32-25.6-60.8-54.4-80-6.4-6.4-12.8-9.6-19.2-16-35.2-9.6-67.2-25.6-96-48-51.2-12.8-105.6-9.6-156.8 12.8-28.8 12.8-54.4 28.8-80 51.2-25.6 22.4-44.8 48-54.4 76.8-12.8 25.6-19.2 57.6-19.2 89.6s6.4 60.8 16 92.8c19.2 25.6 38.4 54.4 60.8 80 25.6 22.4 48 38.4 80 51.2 60.8 25.6 131.2 25.6 188.8 0z"  horiz-adv-x="1024" />
      
      <glyph glyph-name="group" unicode="&#59397;" d="M499.2 364.79999999999995c115.2-57.6 198.4-179.2 198.4-316.8 0-147.2-697.6-150.4-697.6 0 0 137.6 80 259.2 198.4 316.8 41.6-25.6 92.8-44.8 150.4-44.8s105.6 16 150.4 44.8z m300.8 3.2c115.2-48 224-163.2 224-281.6 0-54.4-144-92.8-288-102.4 25.6 16 38.4 48 38.4 70.4 0 105.6-57.6 204.8-137.6 268.8h3.2c51.2 3.2 115.2 19.2 160 44.8zM700.8 790.4c25.6-9.6 51.2-25.6 70.4-44.8 41.6-38.4 64-92.8 64-150.4 0-25.6-6.4-51.2-16-76.8-9.6-25.6-25.6-51.2-48-67.2-19.2-19.2-44.8-35.2-70.4-44.8-48-19.2-124.8-25.6-172.8-12.8 16 9.6 51.2 35.2 64 48 32 25.6 64 102.4 64 144s0 128-64 182.4c-12.8 6.4-32 22.4-48 35.2 48 9.6 108.8 6.4 156.8-12.8z m-262.4 25.6c28.8-9.6 54.4-28.8 73.6-48 41.6-41.6 67.2-96 67.2-156.8 0-28.8-6.4-54.4-16-83.2s-28.8-51.2-51.2-70.4c-19.2-19.2-44.8-35.2-73.6-48-54.4-25.6-121.6-25.6-176-3.2-28.8 12.8-51.2 28.8-73.6 48s-41.6 41.6-51.2 70.4c-12.8 25.6-16 54.4-16 83.2s3.2 54.4 16 83.2c9.6 25.6 28.8 51.2 51.2 70.4 19.2 19.2 44.8 35.2 73.6 48 54.4 28.8 121.6 28.8 176 6.4z"  horiz-adv-x="1024" />
      
      <glyph glyph-name="mine" unicode="&#59398;" d="M694.4 358.4c-54.4-35.2-121.6-51.2-179.2-51.2-64 0-128 19.2-179.2 51.2C192 294.4 96 185.60000000000002 96 32c0-169.6 838.4-166.4 838.4 0-3.2 153.6-102.4 262.4-240 326.4z m-358.4 92.8c25.6-22.4 51.2-38.4 80-51.2 60.8-25.6 128-25.6 188.8 0 32 12.8 57.6 28.8 80 51.2 25.6 22.4 41.6 48 54.4 80 12.8 28.8 19.2 60.8 19.2 89.6 0 64-28.8 124.8-73.6 169.6-25.6 22.4-48 38.4-80 51.2-60.8 25.6-128 25.6-188.8 0-32-12.8-57.6-28.8-80-51.2-25.6-22.4-44.8-51.2-57.6-76.8-9.6-32-16-60.8-16-92.8s6.4-64 19.2-89.6c9.6-32 28.8-57.6 54.4-80z"  horiz-adv-x="1024" />
      
      <glyph glyph-name="ai-search" unicode="&#59393;" d="M448.099844 896c246.015601 0 447.301092-201.285491 447.301092-447.301092 0-95.850234-28.75507-182.115445-79.875195-255.600624l182.115445-182.115445c31.950078-31.950078 31.950078-83.070203 0-115.02028s-83.070203-31.950078-115.020281 0L703.700468 78.078003c-73.485179-51.120125-159.75039-79.875195-255.600624-79.875195-246.015601 0-447.301092 201.285491-447.301092 447.301092C0.798752 694.714509 202.084243 896 448.099844 896z m0-127.800312C272.374415 768.199688 128.599064 624.424337 128.599064 448.698908s143.775351-319.50078 319.50078-319.50078 319.50078 143.775351 319.50078 319.50078S623.825273 768.199688 448.099844 768.199688zM396.979719 640.399376c15.975039 0 28.75507-9.585023 35.145086-25.560062l99.045242-309.915757c6.390016-22.365055-9.585023-47.925117-35.145086-47.925117h-3.195008c-15.975039 0-31.950078 9.585023-35.145086 25.560062l-19.170046 70.290172H317.104524l-19.170047-70.290172c-6.390016-15.975039-19.170047-25.560062-38.340093-25.560062-25.560062 0-41.535101 25.560062-35.145086 47.925117l99.045242 309.915757c6.390016 15.975039 22.365055 25.560062 38.340093 25.560062h35.145086z m-19.170047-57.51014c-12.780031-41.535101-22.365055-86.265211-35.145085-124.605305l-12.780032-41.535101h92.655227l-12.780032 41.535101c-9.585023 38.340094-19.170047 83.070203-31.950078 124.605305zM636.605304 640.399376c19.170047 0 35.145086-15.975039 35.145086-35.145086v-309.915756c0-19.170047-15.975039-35.145086-35.145086-35.145086h-3.195008c-19.170047 0-35.145086 15.975039-35.145085 35.145086V605.25429c0 19.170047 15.975039 35.145086 35.145085 35.145086h3.195008z"  horiz-adv-x="1024" />
      
      <glyph glyph-name="search" unicode="&#59394;" d="M448 864c230.4 0 416-185.6 416-416 0-99.2-35.2-188.8-89.6-259.2l204.8-204.8c19.2-19.2 19.2-48 0-67.2-19.2-19.2-48-19.2-67.2 0l-204.8 204.8C636.8 64 547.2 32 448 32 217.6 32 32 217.6 32 448S217.6 864 448 864z m0-96C272 768 128 624 128 448s144-320 320-320 320 144 320 320S624 768 448 768z"  horiz-adv-x="1024" />
      
      <glyph glyph-name="set-up" unicode="&#59392;" d="M512 576c105.6 0 192-86.4 192-192s-86.4-192-192-192-192 86.4-192 192 86.4 192 192 192z m0-96c-54.4 0-96-41.6-96-96s41.6-96 96-96 96 41.6 96 96-41.6 96-96 96zM432 835.2c-9.6 19.2-32 28.8-54.4 22.4-83.2-19.2-153.6-60.8-214.4-112-12.8-16-16-35.2-9.6-54.4 6.4-12.8 9.6-25.6 9.6-41.6 0-51.2-44.8-92.8-92.8-92.8-19.2 0-38.4-12.8-44.8-32-19.2-41.6-25.6-92.8-25.6-144 0-35.2 3.2-67.2 9.6-99.2 3.2-22.4 25.6-38.4 51.2-35.2h9.6c54.4 0 92.8-41.6 92.8-92.8 0-22.4-9.6-41.6-22.4-57.6-16-16-12.8-41.6 3.2-60.8 60.8-60.8 137.6-105.6 224-131.2 22.4-6.4 51.2 6.4 57.6 28.8 12.8 38.4 48 64 89.6 64s76.8-25.6 89.6-64c6.4-22.4 32-35.2 57.6-28.8 86.4 25.6 163.2 70.4 224 131.2 16 16 16 41.6 3.2 60.8-12.8 16-22.4 35.2-22.4 57.6 0 51.2 44.8 92.8 92.8 92.8h9.6c22.4-3.2 48 12.8 51.2 35.2 6.4 32 9.6 67.2 9.6 99.2 0 51.2-6.4 102.4-22.4 150.4-6.4 19.2-22.4 32-44.8 32-54.4 0-92.8 41.6-92.8 92.8 0 16 3.2 28.8 9.6 41.6 3.2 16-3.2 38.4-16 51.2-60.8 54.4-134.4 92.8-211.2 115.2-19.2 0-44.8-9.6-54.4-28.8-16-28.8-48-51.2-83.2-51.2s-70.4 22.4-83.2 51.2zM262.4 656c0 16-3.2 32-6.4 44.8 35.2 28.8 76.8 48 118.4 67.2 32-41.6 83.2-67.2 140.8-67.2 57.6 0 108.8 25.6 140.8 67.2 44.8-12.8 83.2-38.4 118.4-67.2-3.2-12.8-6.4-32-6.4-44.8 0-86.4 64-166.4 150.4-179.2 6.4-32 9.6-64 9.6-96 0-16 0-32-3.2-48-89.6-9.6-160-86.4-160-179.2 0-28.8 6.4-57.6 19.2-80-35.2-32-76.8-57.6-118.4-73.6-32 51.2-89.6 83.2-153.6 83.2s-121.6-35.2-153.6-83.2c-44.8 16-83.2 41.6-118.4 73.6 6.4 25.6 16 51.2 16 80 0 89.6-67.2 169.6-160 179.2 3.2 12.8 3.2 32 3.2 44.8 0 32 3.2 64 9.6 96 89.6 16 153.6 89.6 153.6 182.4z"  horiz-adv-x="1024" />
      
      <glyph glyph-name="language" unicode="&#59391;" d="M982.4 582.4C905.6 768 723.2 896 512 896 230.4 896 0 665.6 0 384s230.4-512 512-512 512 230.4 512 512c0 96-41.6 198.4-41.6 198.4zM76.8 384c0 54.4 9.6 105.6 28.8 153.6 22.4-12.8 54.4-16 54.4-41.6 0-86.4 3.2-179.2 86.4-179.2 3.2 0 44.8-16 67.2-67.2 6.4-19.2 35.2 0 67.2 0 16 0 0-25.6 0-80s121.6-134.4 121.6-134.4c0-35.2 0-64 3.2-86.4C265.6-48 76.8 147.2 76.8 384z m540.8-422.4c16 70.4 25.6 108.8 60.8 137.6 51.2 41.6 6.4 89.6-32 83.2-32-3.2-12.8 35.2-38.4 38.4-28.8 3.2-64 54.4-102.4 73.6-22.4 9.6-41.6 35.2-73.6 35.2-28.8 0-70.4-22.4-70.4-3.2 0 60.8-6.4 102.4-6.4 121.6 0 12.8-9.6 3.2 28.8 3.2 22.4 0 9.6 41.6 32 41.6 19.2 0 70.4-19.2 83.2-9.6 12.8 6.4 86.4-185.6 86.4-32 0 19.2-9.6 48 0 67.2 38.4 67.2 76.8 124.8 73.6 131.2-3.2 3.2-41.6 9.6-70.4 0-9.6-3.2 3.2-19.2-12.8-22.4-57.6-12.8-105.6 12.8-86.4 38.4 16 25.6 83.2 9.6 86.4 60.8 3.2 28.8 6.4 64 6.4 86.4 156.8-22.4 284.8-128 339.2-272-147.2-108.8-108.8-182.4-60.8-227.2 25.6-22.4 51.2-57.6 67.2-83.2-57.6-128-169.6-233.6-310.4-268.8z"  horiz-adv-x="1024" />
      
      <glyph glyph-name="file-lock" unicode="&#59377;" d="M512 384m-512 0a512 512 0 1 1 1024 0 512 512 0 1 1-1024 0ZM512 384m-512 0a512 512 0 1 1 1024 0 512 512 0 1 1-1024 0ZM608 448v64c0 54.4-41.6 96-96 96s-96-41.6-96-96v-64h-64v64c0 89.6 70.4 160 160 160s160-70.4 160-160v-64h-64z m-121.6-185.6v-54.4c0-12.8 9.6-25.6 25.6-25.6s25.6 9.6 25.6 25.6v54.4c12.8 9.6 25.6 22.4 25.6 41.6 0 25.6-22.4 48-48 48s-51.2-19.2-51.2-48c0-19.2 9.6-32 22.4-41.6zM352 448h320c35.2 0 64-28.8 64-64v-224c0-35.2-28.8-64-64-64H352c-35.2 0-64 28.8-64 64v224c0 35.2 28.8 64 64 64z"  horiz-adv-x="1024" />
      
      <glyph glyph-name="list" unicode="&#59385;" d="M928 0H96c-19.2 0-32 12.8-32 32s16 32 32 32h832c19.2 0 32-12.8 32-32s-16-32-32-32z m0 352H96c-19.2 0-32 12.8-32 32s16 32 32 32h832c19.2 0 32-12.8 32-32s-16-32-32-32z m0 352H96c-16 0-32 12.8-32 32s16 32 32 32h832c19.2 0 32-12.8 32-32s-16-32-32-32z"  horiz-adv-x="1024" />
      
      <glyph glyph-name="new-library" unicode="&#59386;" d="M889.6-96H134.4c-22.4 0-38.4 16-38.4 38.4V825.6C96 848 112 864 134.4 864h480c16-3.2 54.4-6.4 80-35.2 44.8-51.2 198.4-236.8 204.8-243.2 3.2-3.2 28.8-28.8 28.8-64v-579.2c0-9.6-3.2-19.2-9.6-25.6-6.4-9.6-16-12.8-28.8-12.8zM192 0h640V544h-192V768H192v-768zM560 528V384H704v-96h-144v-144h-96V288H320v96h144v144h96z"  horiz-adv-x="1024" />
      
      <glyph glyph-name="entry" unicode="&#59388;" d="M384 352c35.2 0 64-28.8 64-64v-256c0-35.2-28.8-64-64-64H128c-35.2 0-64 28.8-64 64v256c0 35.2 28.8 64 64 64h256z m0-64H128v-256h256v256z m160 0h384c19.2 0 32-12.8 32-32s-12.8-32-32-32H544c-19.2 0-32 12.8-32 32s12.8 32 32 32z m0-192h384c19.2 0 32-12.8 32-32s-12.8-32-32-32H544c-19.2 0-32 12.8-32 32s12.8 32 32 32zM384 800c35.2 0 64-28.8 64-64v-256c0-35.2-28.8-64-64-64H128c-35.2 0-64 28.8-64 64V736c0 35.2 28.8 64 64 64h256z m0-64H128v-256h256V736z m160 0h384c19.2 0 32-12.8 32-32s-12.8-32-32-32H544c-19.2 0-32 12.8-32 32s12.8 32 32 32z m0-192h384c19.2 0 32-12.8 32-32s-12.8-32-32-32H544c-19.2 0-32 12.8-32 32s12.8 32 32 32z"  horiz-adv-x="1024" />
      
      <glyph glyph-name="files1" unicode="&#59390;" d="M832 832c35.2 0 64-28.8 64-64v-768c0-35.2-28.8-64-64-64H192c-35.2 0-64 28.8-64 64V768c0 35.2 28.8 64 64 64h640z m-192-480H256v-128h384v128z m128 224H256v-128h512v128z"  horiz-adv-x="1024" />
      
      <glyph glyph-name="sort2" unicode="&#59378;" d="M294.4 790.4l201.6-204.8c19.2-19.2 19.2-51.2 0-73.6-19.2-19.2-51.2-19.2-70.4 0L320 620.8v-604.8c0-25.6-22.4-48-48-48S224-9.600000000000023 224 16V620.8L118.4 512c-19.2-19.2-48-19.2-67.2-3.2l-3.2 3.2c-19.2 19.2-19.2 51.2 0 73.6l201.6 204.8c12.8 12.8 32 12.8 44.8 0zM752 800c25.6 0 48-22.4 48-48v-604.8l105.6 108.8c19.2 19.2 51.2 19.2 70.4 0 19.2-19.2 19.2-51.2 0-73.6l-201.6-204.8c-12.8-12.8-32-12.8-44.8 0l-201.6 204.8c-19.2 19.2-19.2 51.2 0 73.6l3.2 3.2c19.2 16 48 16 67.2-3.2l105.6-108.8V752c0 25.6 22.4 48 48 48z"  horiz-adv-x="1024" />
      
      <glyph glyph-name="new-group" unicode="&#59379;" d="M550.4 32H307.2c-12.8 0-22.4 9.6-32 19.2-6.4 6.4-12.8 22.4-6.4 41.6 48 156.8 163.2 275.2 364.8 272 102.4 0 160-25.6 208-57.6 16-12.8 48-16 73.6 6.4 25.6 19.2 12.8 60.8 0 73.6-22.4 19.2-64 48-112 64 32 32 67.2 99.2 67.2 169.6 0 137.6-108.8 246.4-243.2 246.4S384 752 384 617.6c0-67.2 25.6-124.8 67.2-169.6-118.4-38.4-256-144-288-345.6-6.4-44.8-3.2-92.8 22.4-124.8 25.6-32 80-41.6 118.4-41.6h246.4c22.4 0 51.2 19.2 51.2 48-3.2 32-28.8 48-51.2 48zM489.6 620.8c0 76.8 60.8 137.6 137.6 137.6s137.6-60.8 137.6-137.6-60.8-137.6-137.6-137.6-137.6 60.8-137.6 137.6z m-134.4-144c-3.2 16-19.2 32-28.8 41.6-22.4 32-51.2 134.4-16 195.2 25.6 41.6 86.4 60.8 60.8 108.8-12.8 19.2-38.4 41.6-80 25.6s-112-96-112-185.6 25.6-137.6 38.4-160C112 460.8 32 336 0 198.4c-6.4-19.2 6.4-57.6 38.4-67.2 28.8-6.4 64 16 70.4 35.2 48 156.8 112 214.4 185.6 259.2 28.8 19.2 67.2 28.8 60.8 51.2zM1024 112h-144V256h-96v-144H640v-96h144V-128h96v144H1024V64v48z"  horiz-adv-x="1024" />
      
      <glyph glyph-name="sort1" unicode="&#59382;" d="M377.6-64c-16 0-28.8 12.8-28.8 32V726.4l-230.4-236.8c-12.8-12.8-32-12.8-41.6 0-12.8 12.8-12.8 32 0 44.8l281.6 288c9.6 9.6 22.4 12.8 32 6.4 12.8-3.2 19.2-16 19.2-28.8v-832c-3.2-19.2-16-32-32-32z m268.8 0c-3.2 0-6.4 0-12.8 3.2-12.8 3.2-19.2 16-19.2 28.8V800c0 16 12.8 32 28.8 32s28.8-12.8 28.8-32v-761.6l230.4 236.8c12.8 12.8 32 12.8 41.6 0 12.8-12.8 12.8-32 0-44.8l-281.6-288c0-3.2-6.4-6.4-16-6.4z"  horiz-adv-x="1024" />
      
      <glyph glyph-name="move" unicode="&#59383;" d="M928 736h-307.2c-32 35.2-54.4 57.6-70.4 67.2-35.2 25.6-70.4 28.8-86.4 28.8H96c-35.2 0-64-28.8-64-64v-768c0-35.2 28.8-64 64-64h832c35.2 0 64 28.8 64 64V672c0 35.2-28.8 64-64 64z m-32-704H128V640h768v-608zM288 384h336l-134.4 134.4 67.2 67.2 249.6-249.6-249.6-249.6-67.2 67.2 134.4 134.4H288v96z"  horiz-adv-x="1024" />
      
      <glyph glyph-name="files" unicode="&#59372;" d="M832 832c35.2 0 64-28.8 64-64v-768c0-35.2-28.8-64-64-64H192c-35.2 0-64 28.8-64 64V768c0 35.2 28.8 64 64 64h640z m-192-480H256v-128h384v128z m128 224H256v-128h512v128z"  horiz-adv-x="1024" />
      
      <glyph glyph-name="freeze" unicode="&#59364;" d="M512 384m-512 0a512 512 0 1 1 1024 0 512 512 0 1 1-1024 0ZM316.8 716.8c118.4 70.4 265.6 70.4 384 3.2s192-195.2 192-332.8c0-137.6-73.6-265.6-195.2-332.8-182.4-105.6-416-41.6-521.6 140.8S134.4 608 316.8 716.8z m348.8-604.8c137.6 80 195.2 249.6 131.2 396.8L259.2 195.2c92.8-124.8 268.8-163.2 406.4-83.2zM352 652.8c-137.6-80-192-249.6-128-393.6l537.6 310.4c-96 128-272 163.2-409.6 83.2z"  horiz-adv-x="1024" />
      
      <glyph glyph-name="helpless" unicode="&#59363;" d="M35.55136 272c32-44.8 83.2-67.2 137.6-70.4l150.4-3.2c-12.8-51.2-16-99.2-12.8-140.8 3.2-48 16-89.6 41.6-121.6 16-22.4 35.2-38.4 60.8-48 19.2-9.6 38.4-12.8 60.8-12.8 83.2 0 147.2 64 147.2 140.8 0 124.8 80 227.2 176 227.2h137.6c48 0 86.4 38.4 86.4 89.6v480C1024.35136 857.6 985.95136 896 937.95136 896H259.55136C217.95136 896 179.55136 883.2 147.55136 857.6c-32-25.6-54.4-60.8-64-102.4L3.55136 416c-9.6-51.2 0-102.4 32-144zM838.75136 812.8h99.2v-483.2c0-3.2-3.2-3.2-3.2-3.2h-96V812.8z m-755.2-416L163.55136 736c6.4 22.4 16 41.6 35.2 54.4 19.2 12.8 41.6 22.4 64 22.4h499.2V320c-22.4-3.2-41.6-12.8-64-22.4-32-16-57.6-38.4-83.2-67.2-48-57.6-73.6-134.4-73.6-217.6 0-32-28.8-54.4-67.2-54.4-3.2 0-32 0-54.4 28.8-32 44.8-35.2 131.2-3.2 243.2 3.2 12.8 0 25.6-6.4 35.2s-19.2 16-32 16l-201.6 3.2c-28.8 0-57.6 12.8-76.8 38.4-16 19.2-19.2 48-16 73.6z"  horiz-adv-x="1024" />
      
      <glyph glyph-name="helpless-selected" unicode="&#59360;" d="M35.55136 272c32-44.8 83.2-67.2 137.6-70.4l150.4-3.2c-12.8-51.2-16-99.2-12.8-140.8 3.2-48 16-89.6 41.6-121.6 16-22.4 35.2-38.4 60.8-48 19.2-9.6 38.4-12.8 60.8-12.8 83.2 0 147.2 64 147.2 140.8 0 124.8 80 227.2 176 227.2h137.6c48 0 86.4 38.4 86.4 89.6v480C1024.35136 857.6 985.95136 896 937.95136 896H259.55136C217.95136 896 179.55136 883.2 147.55136 857.6c-32-25.6-54.4-60.8-64-102.4L3.55136 416c-9.6-51.2 0-102.4 32-144zM803.55136 896h70.4s3.2 0 3.2-3.2v-649.6c0-3.2 0-6.4-3.2-6.4h-70.4V896z"  horiz-adv-x="1024" />
      
      <glyph glyph-name="helpful-selected" unicode="&#59361;" d="M988.8 496c-32 44.8-83.2 67.2-137.6 70.4l-150.4 3.2c12.8 51.2 16 99.2 12.8 140.8-6.4 48-19.2 89.6-44.8 121.6-16 22.4-35.2 38.4-60.8 48-16 9.6-35.2 16-57.6 16-83.2 0-147.2-64-147.2-140.8 0-124.8-80-227.2-176-227.2H86.4c-48 0-86.4-38.4-86.4-89.6v-480C0-89.6 38.4-128 86.4-128h678.4c41.6 0 80 12.8 112 38.4 32 25.6 54.4 60.8 64 102.4L1020.8 352c9.6 51.2 0 102.4-32 144zM220.8-128H150.4s-3.2 0-3.2 3.2V524.8c0 3.2 0 6.4 3.2 6.4h70.4V-128z"  horiz-adv-x="1024" />
      
      <glyph glyph-name="helpful" unicode="&#59362;" d="M988.8 496c-32 44.8-83.2 67.2-137.6 70.4l-150.4 3.2c12.8 51.2 16 99.2 12.8 140.8-6.4 48-19.2 89.6-44.8 121.6-16 22.4-35.2 38.4-60.8 48-16 9.6-35.2 16-57.6 16-83.2 0-147.2-64-147.2-140.8 0-124.8-80-227.2-176-227.2H86.4c-48 0-86.4-38.4-86.4-89.6v-480C0-89.6 38.4-128 86.4-128h678.4c41.6 0 80 12.8 112 38.4 32 25.6 54.4 60.8 64 102.4L1020.8 352c9.6 51.2 0 102.4-32 144zM185.6-44.8h-96-3.2V438.4c0 3.2 3.2 3.2 3.2 3.2h96v-486.4z m755.2 416L860.8 32c-6.4-22.4-16-41.6-35.2-54.4-19.2-12.8-41.6-22.4-64-22.4H265.6V448c22.4 3.2 41.6 12.8 64 22.4 32 16 57.6 38.4 83.2 67.2 48 57.6 73.6 134.4 73.6 217.6 0 32 28.8 54.4 67.2 54.4 3.2 0 32 0 54.4-28.8 32-44.8 35.2-131.2 3.2-243.2-3.2-12.8 0-25.6 6.4-35.2 6.4-9.6 19.2-16 32-16l201.6-3.2c28.8 0 57.6-12.8 76.8-38.4 12.8-19.2 16-48 12.8-73.6z"  horiz-adv-x="1024" />
      
      <glyph glyph-name="x-01" unicode="&#59352;" d="M880 752c19.2-19.2 19.2-54.4 0-73.6L585.6 384l294.4-294.4c19.2-19.2 19.2-48 3.2-70.4l-3.2-3.2c-19.2-19.2-54.4-19.2-73.6 0L512 310.4l-294.4-294.4c-19.2-19.2-54.4-19.2-73.6 0-19.2 19.2-19.2 54.4 0 73.6l294.4 294.4-294.4 294.4c-19.2 19.2-22.4 51.2-3.2 70.4l3.2 3.2c19.2 19.2 54.4 19.2 73.6 0l294.4-294.4 294.4 294.4c22.4 22.4 54.4 22.4 73.6 0z"  horiz-adv-x="1024" />
      
      <glyph glyph-name="desktop" unicode="&#59168;" d="M928 832c35.2 0 64-28.8 64-64v-608c0-35.2-28.8-64-64-64H604.8c3.2-25.6 9.6-44.8 16-64h121.6c32 0 57.6-25.6 57.6-57.6s-25.6-57.6-57.6-57.6H281.6c-32 0-57.6 25.6-57.6 57.6S249.6 32 281.6 32h121.6c6.4 19.2 12.8 38.4 19.2 64H96c-35.2 0-64 28.8-64 64V768c0 35.2 28.8 64 64 64h832z m-51.2-112H147.2v-486.4h729.6V720z"  horiz-adv-x="1024" />
      
      <glyph glyph-name="qr-code" unicode="&#59158;" d="M432 345.6c22.4 0 38.4-16 38.4-38.4v-329.6c0-22.4-16-38.4-38.4-38.4H102.4c-22.4 0-38.4 16-38.4 38.4V307.2c0 22.4 16 38.4 38.4 38.4h329.6z m524.8-326.4v-41.6c0-22.4-16-38.4-38.4-38.4h-41.6v80h80z m-160 0v-80h-80v80h80z m0 326.4v-163.2h80v163.2h41.6c22.4 0 38.4-16 38.4-38.4v-204.8h-243.2v80h-80v-243.2h-41.6c-22.4 0-38.4 16-38.4 38.4V307.2c0 22.4 16 38.4 38.4 38.4h204.8z m-406.4-83.2H144v-243.2h243.2v243.2z m-147.2-76.8c16 9.6 35.2 9.6 51.2 0s25.6-25.6 25.6-44.8-9.6-35.2-25.6-44.8-35.2-9.6-51.2 0-25.6 25.6-25.6 44.8 9.6 35.2 25.6 44.8zM432 832c22.4 0 38.4-16 38.4-38.4v-329.6c0-22.4-16-38.4-38.4-38.4H102.4c-22.4 0-38.4 16-38.4 38.4V793.6C64 816 80 832 102.4 832h329.6z m486.4 0c22.4 0 38.4-16 38.4-38.4v-329.6c0-22.4-16-38.4-38.4-38.4H588.8c-22.4 0-38.4 16-38.4 38.4V793.6c0 22.4 16 38.4 38.4 38.4h329.6zM390.4 752H144v-243.2h243.2V752z m486.4 0h-243.2v-243.2h243.2V752zM243.2 672c16 9.6 35.2 9.6 51.2 0s25.6-25.6 25.6-44.8-12.8-32-28.8-41.6c-12.8-9.6-32-9.6-48 0s-25.6 25.6-25.6 41.6 9.6 35.2 25.6 44.8z m512 6.4c28.8 0 51.2-22.4 51.2-51.2s-22.4-51.2-51.2-51.2c-28.8 0-51.2 22.4-51.2 51.2s22.4 51.2 51.2 51.2z"  horiz-adv-x="1024" />
      
      <glyph glyph-name="share-from-other-servers" unicode="&#59151;" d="M825.6 742.4c0 32-25.6 57.6-57.6 57.6H121.6C92.8 800 64 774.4 64 742.4v-172.8h761.6V742.4zM361.6 649.6H172.8V716.8h188.8v-67.2z m169.6 16c-6.4 9.6-6.4 22.4 0 35.2 6.4 9.6 19.2 19.2 28.8 19.2 19.2 0 32-16 35.2-32 0-19.2-12.8-35.2-32-35.2-12.8-3.2-25.6 3.2-32 12.8z m140.8-16c-19.2 0-35.2 16-35.2 32 0 19.2 16 35.2 32 35.2 19.2 0 35.2-16 35.2-32 0-19.2-16-35.2-32-35.2zM361.6 96v-32H172.8v67.2h172.8c-9.6 25.6-16 54.4-19.2 80H64v-188.8c0-22.4 19.2-41.6 41.6-41.6h364.8c-44.8 32-80 70.4-108.8 115.2z m-188.8 256v67.2h188.8v-19.2c22.4 38.4 51.2 73.6 86.4 99.2H64v-230.4h259.2c3.2 28.8 6.4 54.4 16 80H172.8zM659.2 537.6c-160 0-288-128-288-288s128-288 288-288 288 128 288 288-131.2 288-288 288z m57.6-92.8c32 0 57.6-25.6 57.6-57.6s-25.6-57.6-57.6-57.6-57.6 25.6-57.6 57.6c3.2 32 28.8 57.6 57.6 57.6z m-156.8-144l105.6 67.2c3.2-9.6 9.6-19.2 19.2-25.6L576 272c-3.2 12.8-9.6 19.2-16 28.8zM467.2 256c0 32 25.6 57.6 57.6 57.6s57.6-25.6 57.6-57.6-25.6-57.6-57.6-57.6-57.6 25.6-57.6 57.6z m99.2-35.2c6.4 9.6 9.6 16 12.8 28.8l128-67.2c-6.4-9.6-12.8-16-12.8-28.8l-128 67.2z m182.4-22.4c32 0 57.6-25.6 57.6-57.6s-25.6-57.6-57.6-57.6-54.4 25.6-54.4 57.6c-3.2 32 22.4 57.6 54.4 57.6z"  horiz-adv-x="1024" />
      
      <glyph glyph-name="tips" unicode="&#59092;" d="M512-96C249.6-96 32 118.4 32 384S249.6 864 512 864s480-214.4 480-480-214.4-480-480-480zM480 659.2c-19.2 0-35.2-16-35.2-35.2v-275.2c0-19.2 16-35.2 35.2-35.2h67.2c19.2 0 35.2 16 35.2 35.2V624c0 19.2-16 35.2-35.2 35.2H480z m0-412.8c-19.2 0-35.2-16-35.2-35.2v-67.2c0-19.2 16-35.2 35.2-35.2h67.2c19.2 0 35.2 16 35.2 35.2v67.2c0 19.2-16 35.2-35.2 35.2H480z"  horiz-adv-x="1024" />
      
      <glyph glyph-name="upload" unicode="&#59091;" d="M249.6 19.2C108.8 32 0 140.8 0 256c0 147.2 102.4 256 240 272C256 672 371.2 768 512 768s256-96 272-240c137.6-16 240-124.8 240-272 0-115.2-108.8-224-249.6-236.8h-160c-12.8 0-22.4 9.6-22.4 22.4v160c0 12.8 9.6 22.4 22.4 22.4h86.4c22.4 0 32 16 16 35.2l-179.2 227.2c-16 19.2-38.4 19.2-54.4 0L304 256c-12.8-16-6.4-32 16-32h89.6c12.8 0 22.4-9.6 22.4-22.4v-160c0-12.8-9.6-22.4-22.4-22.4h-160z"  horiz-adv-x="1024" />
      
      <glyph glyph-name="logout" unicode="&#59067;" d="M572.8 249.6H310.4c-12.8 0-22.4 6.4-22.4 16v233.6c0 12.8 6.4 22.4 22.4 22.4H576V729.6c0 9.6 3.2 16 12.8 19.2 9.6 3.2 16 3.2 22.4-6.4l12.8-12.8L768 585.6l185.6-185.6c9.6-9.6 9.6-22.4 0-32l-265.6-265.6-76.8-76.8c-6.4-6.4-12.8-9.6-22.4-6.4-9.6 3.2-12.8 9.6-12.8 19.2v211.2h-3.2z m-160 496v-76.8H214.4c-41.6 0-73.6-28.8-73.6-70.4v-425.6c0-38.4 28.8-64 54.4-70.4h217.6v-76.8H204.8c-67.2 0-124.8 51.2-137.6 118.4 0 6.4-3.2 16-3.2 25.6V601.6C67.2 662.4 96 704 147.2 732.8c19.2 9.6 38.4 12.8 60.8 12.8h204.8z"  horiz-adv-x="1024" />
      
      <glyph glyph-name="dingtalk" unicode="&#59064;" d="M512-96C249.6-96 32 121.6 32 384S249.6 864 512 864s480-217.6 480-480-217.6-480-480-480z m0 896C281.6 800 96 614.4 96 384s185.6-416 416-416 416 185.6 416 416S742.4 800 512 800z m217.6-380.8c-22.4-44.8-70.4-134.4-70.4-134.4l-19.2-25.6h73.6l-144-198.4 32 134.4H544l22.4 89.6c-22.4-6.4-38.4-12.8-60.8-19.2 0 0-28.8-32-89.6 22.4 0 0-38.4 35.2-19.2 44.8 9.6 3.2 41.6 16 70.4 22.4 38.4 6.4 70.4 16 70.4 16s-121.6-3.2-150.4 3.2-67.2 48-73.6 92.8c0 0-12.8 25.6 25.6 12.8s198.4-35.2 198.4-35.2-208 67.2-217.6 83.2-41.6 86.4-38.4 128c0 0 0 12.8 12.8 9.6 0 0 153.6-70.4 259.2-115.2 105.6-38.4 195.2-60.8 182.4-112-3.2-6.4-6.4-12.8-6.4-19.2z"  horiz-adv-x="1024" />
      
      <glyph glyph-name="enlarge" unicode="&#59055;" d="M576 832v-384h384v-128H576v-384h-128V320H64v128h384V832h128z"  horiz-adv-x="1024" />
      
      <glyph glyph-name="narrow" unicode="&#59056;" d="M64 448h896v-128H64z"  horiz-adv-x="1024" />
      
      <glyph glyph-name="page-size" unicode="&#59054;" d="M960 256v-320H640v128h192v192h128zM192 256v-192h192v-128H64V256h128zM960 832v-320h-128V704h-192V832h320zM64 832h320v-128H192v-192H64V832z"  horiz-adv-x="1024" />
      
      <glyph glyph-name="arrow" unicode="&#58997;" d="M636.8-41.6l364.8 368c22.4 22.4 28.8 54.4 16 80 0 3.2-3.2 3.2-3.2 6.4-3.2 9.6-9.6 12.8-12.8 19.2L640 809.6c-28.8 32-73.6 32-102.4 3.2-32-28.8-32-76.8-6.4-108.8l3.2-3.2 233.6-243.2H73.6C32 457.6 0 425.6 0 384s28.8-76.8 70.4-76.8h704L531.2 64c-28.8-28.8-28.8-76.8-3.2-105.6 28.8-28.8 76.8-32 108.8 0-3.2 0 0 0 0 0z"  horiz-adv-x="1024" />
      
      <glyph glyph-name="table" unicode="&#58994;" d="M624 496h-224v-224h224v224z m73.6 0v-224h185.6v224h-185.6z m-73.6-492.8v195.2h-224v-195.2h224z m73.6 0h153.6c19.2 0 32 12.8 32 32v163.2h-185.6v-195.2zM326.4 496H137.6v-224h188.8v224z m0-492.8v195.2H137.6v-163.2c0-19.2 12.8-32 32-32h156.8z m556.8 566.4V716.8c0 19.2-12.8 32-32 32H169.6c-19.2 0-32-12.8-32-32v-147.2h745.6zM160 832h704c54.4 0 96-41.6 96-96v-704c0-54.4-41.6-96-96-96H160c-54.4 0-96 41.6-96 96V736c0 54.4 41.6 96 96 96z"  horiz-adv-x="1024" />
      
      <glyph glyph-name="cancel-invitation" unicode="&#58977;" d="M457.6 864c-131.2 0-236.8-105.6-236.8-236.8s105.6-236.8 236.8-236.8 236.8 105.6 236.8 236.8S588.8 864 457.6 864z m64-614.4l32 44.8c0 12.8-9.6 25.6-25.6 25.6h-192c-156.8 0-284.8-128-284.8-284.8v-86.4c0-25.6 22.4-44.8 44.8-44.8h425.6c12.8 0 25.6 9.6 25.6 25.6l-32 44.8c-3.2 6.4-25.6 64-25.6 124.8 6.4 67.2 19.2 124.8 32 150.4z m256-339.2c-112 0-201.6 92.8-201.6 201.6s92.8 201.6 201.6 201.6 201.6-92.8 201.6-201.6-89.6-201.6-201.6-201.6z m112 272c9.6 9.6 9.6 22.4 0 28.8-9.6 9.6-19.2 9.6-28.8 0l-73.6-76.8-80 76.8c-9.6 9.6-19.2 9.6-28.8 0-9.6-9.6-9.6-22.4 0-28.8l73.6-76.8-73.6-73.6c-9.6-9.6-9.6-22.4 0-28.8 9.6-9.6 19.2-9.6 28.8 0l73.6 76.8 73.6-76.8c9.6-9.6 19.2-9.6 28.8 0 9.6 9.6 9.6 22.4 0 28.8l-73.6 76.8c6.4-6.4 80 73.6 80 73.6z"  horiz-adv-x="1024" />
      
      <glyph glyph-name="sort" unicode="&#58967;" d="M763.345455-65.939394c-31.030303 0-55.854545 21.721212-55.854546 58.957576V585.69697l-99.29697-114.812122c-12.412121-15.515152-24.824242-18.618182-40.339394-18.618181-31.030303 0-58.957576 27.927273-58.957575 58.957575 0 15.515152 3.10303 31.030303 15.515151 43.442425l189.284849 232.727272c18.618182 9.309091 31.030303 15.515152 46.545454 15.515152s31.030303-6.206061 43.442424-18.618182l192.387879-232.727273c9.309091-12.412121 12.412121-27.927273 12.412121-43.442424 0-31.030303-24.824242-58.957576-55.854545-58.957576-15.515152 0-31.030303 6.206061-43.442424 18.618182L812.993939 585.69697v-595.781818c6.206061-34.133333-12.412121-55.854545-49.648484-55.854546zM15.515152 678.787879c0-34.133333 27.927273-62.060606 58.957575-62.060606h316.509091c31.030303 0 58.957576 27.927273 58.957576 62.060606s-27.927273 62.060606-58.957576 62.060606H74.472727C40.339394 740.848485 15.515152 712.921212 15.515152 678.787879z m58.957575-372.363637h378.569697c31.030303 0 58.957576 27.927273 58.957576 62.060606s-27.927273 62.060606-58.957576 62.060607H74.472727c-31.030303 0-58.957576-27.927273-58.957575-62.060607 3.10303-34.133333 27.927273-62.060606 58.957575-62.060606z m-3.10303-310.30303h446.836364c31.030303 0 55.854545 27.927273 55.854545 62.060606s-24.824242 62.060606-55.854545 62.060606H71.369697c-31.030303 0-55.854545-27.927273-55.854545-62.060606 3.10303-34.133333 27.927273-62.060606 55.854545-62.060606z"  horiz-adv-x="1024" />
      
      <glyph glyph-name="add" unicode="&#58963;" d="M473.6 422.4v147.2h73.6v-150.4h150.4v-73.6h-150.4v-150.4h-73.6v150.4h-147.2v73.6h147.2zM160 832h704c54.4 0 96-41.6 96-96v-704c0-54.4-41.6-96-96-96H160c-54.4 0-96 41.6-96 96V736c0 54.4 41.6 96 96 96z m32-64c-35.2 0-64-28.8-64-64v-640c0-35.2 28.8-64 64-64h640c35.2 0 64 28.8 64 64V704c0 35.2-28.8 64-64 64H192z"  horiz-adv-x="1024" />
      
      <glyph glyph-name="dtable-logo" unicode="&#58881;" d="M160 768h166.4c19.2 0 32-12.8 32-32v-166.4c0-19.2-12.8-32-32-32H160c-19.2 0-32 12.8-32 32V736c0 19.2 12.8 32 32 32z m0-268.8h166.4c19.2 0 32-12.8 32-32v-166.4c0-19.2-12.8-32-32-32H160c-19.2 0-32 12.8-32 32v166.4c0 19.2 12.8 32 32 32z m0-268.8h166.4c19.2 0 32-12.8 32-32V32c0-19.2-12.8-32-32-32H160c-19.2 0-32 12.8-32 32v166.4c0 19.2 12.8 32 32 32z m268.8 0h166.4c19.2 0 32-12.8 32-32V32c0-19.2-12.8-32-32-32h-166.4c-19.2 0-32 12.8-32 32v166.4c0 19.2 12.8 32 32 32z m268.8 0H864c19.2 0 32-12.8 32-32V32c0-19.2-12.8-32-32-32h-166.4c-19.2 0-32 12.8-32 32v166.4c0 19.2 12.8 32 32 32z m0 268.8H864c19.2 0 32-12.8 32-32v-166.4c0-19.2-12.8-32-32-32h-166.4c-19.2 0-32 12.8-32 32v166.4c0 19.2 12.8 32 32 32z m-268.8 0h166.4c19.2 0 32-12.8 32-32v-166.4c0-19.2-12.8-32-32-32h-166.4c-19.2 0-32 12.8-32 32v166.4c0 19.2 12.8 32 32 32z m0 268.8h166.4c19.2 0 32-12.8 32-32v-166.4c0-19.2-12.8-32-32-32h-166.4c-19.2 0-32 12.8-32 32V736c0 19.2 12.8 32 32 32z m268.8 0H864c19.2 0 32-12.8 32-32v-166.4c0-19.2-12.8-32-32-32h-166.4c-19.2 0-32 12.8-32 32V736c0 19.2 12.8 32 32 32z"  horiz-adv-x="1024" />
      
      <glyph glyph-name="enterprise-wechat" unicode="&#58882;" d="M672 147.20000000000005c-6.4-6.4-6.4-12.8 0-19.2h3.2c28.8-25.6 48-64 51.2-102.4 9.6-28.8 38.4-48 67.2-38.4 28.8 9.6 48 38.4 38.4 67.2-6.4 22.4-25.6 38.4-48 41.6-35.2 6.4-70.4 25.6-96 51.2-3.2 3.2-9.6 3.2-16 0zM896 233.60000000000002c-9.6-9.6-16-19.2-16-32-6.4-35.2-25.6-70.4-51.2-96-6.4-6.4-6.4-12.8 0-19.2 6.4-6.4 12.8-6.4 19.2 0l3.2 3.2c25.6 28.8 64 48 102.4 51.2 28.8 6.4 48 38.4 38.4 67.2-6.4 28.8-38.4 48-67.2 38.4-12.8 0-19.2-6.4-28.8-12.8zM742.4 390.4c-22.4-22.4-22.4-57.6 0-76.8 9.6-9.6 19.2-16 32-16 35.2-6.4 70.4-25.6 96-51.2 6.4-6.4 12.8-6.4 19.2 0 6.4 6.4 6.4 12.8 0 19.2l-3.2 3.2c-28.8 25.6-48 64-51.2 102.4-9.6 28.8-38.4 48-67.2 38.4-12.8-6.4-19.2-12.8-25.6-19.2zM713.6 304c-28.8-32-64-51.2-105.6-54.4-28.8-6.4-48-38.4-38.4-67.2 3.2-9.6 6.4-19.2 16-25.6 22.4-22.4 57.6-22.4 76.8 0 9.6 9.6 16 19.2 16 32 6.4 35.2 25.6 70.4 51.2 96 6.4 6.4 6.4 12.8 0 19.2 0 3.2-9.6 3.2-16 0zM380.8 780.8c-99.2-9.6-192-51.2-256-118.4C99.2 636.8 80 608 64 576c-48-99.2-41.6-217.6 22.4-307.2 16-25.6 48-60.8 73.6-83.2l-12.8-92.8v-12.8c0-16 16-28.8 32-28.8 3.2 0 9.6 3.2 12.8 3.2h3.2l28.8 12.8 86.4 41.6c41.6-12.8 83.2-16 124.8-16 51.2 0 102.4 9.6 153.6 25.6-25.6 9.6-41.6 32-38.4 57.6-51.2-16-105.6-22.4-156.8-16H384c-19.2 3.2-38.4 6.4-57.6 12.8-9.6 3.2-22.4 3.2-28.8-3.2h-3.2L224 128l-3.2-3.2h-3.2c-3.2 0-3.2 3.2-3.2 6.4l3.2 9.6 3.2 12.8 6.4 19.2 6.4 22.4c3.2 12.8 0 25.6-9.6 32-28.8 19.2-51.2 44.8-70.4 73.6-57.6 73.6-64 166.4-25.6 243.2 12.8 25.6 28.8 48 51.2 70.4 54.4 54.4 128 89.6 211.2 99.2 28.8 3.2 57.6 3.2 86.4 0 83.2-9.6 156.8-44.8 208-99.2 19.2-22.4 38.4-44.8 48-70.4 16-32 25.6-70.4 25.6-105.6v-12.8c22.4 12.8 51.2 9.6 67.2-6.4l3.2-3.2c3.2 54.4-6.4 108.8-28.8 156.8-16 32-35.2 60.8-60.8 86.4-67.2 67.2-156.8 112-252.8 121.6-38.4 6.4-73.6 6.4-105.6 0z"  horiz-adv-x="1025" />
      
    </font>
</defs>
</svg>
